Торрент файл
скачать торрент магнет ссылка Добавлен: 01 дек 2016, 20:36
Размер: 7.07 ГБ
Сидеров: 170
Личеров: 183
Автор

СообщениеДобавлено: 01 дек 2016, 20:36 

Не в сети
Дата регистрации:
28 сен 2016, 18:10
Спасибо: 55 / 0
Сообщения: 942
Год выпуска: 2016
Страна: Россия
Производство: Кинокомпания Amalgama Studio
Жанр: Психологический детектив
Режиссёр: Валентин Донсков
В ролях: Кирилл Кяро, Алексей Барабаш, Анна Попова, Елена Подкаминская, Игорь Скляр, Юрий Цурило, Андрей Казаков, Василий Мищенко, Елена Яковлева, Андрей Фролов, Роман Полянский, Екатерина Волкова (I), Виктор Потапешкин, Яков Шамшин
Перевод: Не требуется
Субтитры: Нет
Реклама: Отсутствует
Описание: Булыжные мостовые и просторные террасы домов нарядного приморского города залиты солнечным светом, не допускающим и мысли, что в этом уголке рая может произойти нечто ужасное. И все же жителям этого милого городка придется испытать сильнейшее потрясение от череды жестоких ритуальных убийств, как две капли воды повторяющих преступление, произошедшее здесь же более 30 лет назад. Виновный давно отбывает положенный срок заключения, так кто же скрывается за новыми изощренными убийствами? Раскрыть эту загадку, корнями уходящую в прошлое, пытаются молодой следователь Маргарита Сторожева и консультант полиции, психотерапевт Илья Лавров. У каждого из них есть своя тайна, своя боль от глубоких душевных ран, делающая жизнь иногда невыносимой. Но, шаг за шагом приближаясь к разгадке преступления, в совместной работе и общении, они учат друг друга жить по-другому - без страха, без страданий, наполняя свое существование радостью и душевным теплом.


Качество: WEB-DLRip-AVC
Продолжительность: 10 х 00:50:00
Формат: MKV
Видео кодек: MPEG-4 AVC
Аудио кодек: АС3
Свойства видео: 1024x576 (16:9), 25 fps, MPEG-4 AVC ~1 800 kbps avg, 0.122 bit/pixel
Свойства аудио: 48 KHz, AC3, 2 ch, ~192.00 kbps avg[/color][/font]
Общее
Уникальный идентификатор : 221804526852037947735849890402341906495 (0xA6DDFF7D5A97398D8F9F48297096683F)
Полное имя : D:Nauchi.menja.zhit.2016.WEB-DLRip(AVC).ExKinoRayNauchi.menja.zhit.(01.seriya).2016.WEB-DLRip(AVC).ExKinoRay.mkv
Формат : Matroska
Версия формата : Version 2
Размер файла : 708 Мбайт
Продолжительность : 49 м.
Общий поток : 1993 Кбит/сек
Дата кодирования : UTC 2016-11-27 12:38:15
Программа кодирования : mkvmerge v7.8.0 ('River Man') 32bit built on Apr 3 2015 12:11:22
Библиотека кодирования : libebml v1.3.1 + libmatroska v1.4.2
Видео
Идентификатор : 1
Формат : AVC
Формат/Информация : Advanced Video Codec
Профиль формата : High@L4.1
Параметр CABAC формата : Да
Параметр ReFrames формата : 10 кадров
Идентификатор кодека : V_MPEG4/ISO/AVC
Продолжительность : 49 м.
Битрейт : 1800 Кбит/сек
Ширина : 1024 пикселя
Высота : 576 пикселей
Соотношение сторон : 16:9
Режим частоты кадров : Постоянный
Частота кадров : 25,000 кадров/сек
Цветовое пространство : YUV
Субдискретизация насыщенности : 4:2:0
Битовая глубина : 8 бит
Тип развёртки : Прогрессивная
Бит/(Пиксели*Кадры) : 0.122
Размер потока : 626 Мбайт (88%)
Библиотека кодирования : x264 core 146 r2538 121396c
Настройки программы : cabac=1 / ref=10 / deblock=1:-3:-3 / analyse=0x3:0x133 / me=umh / subme=10 / psy=1 / psy_rd=1.00:0.03 / mixed_ref=1 / me_range=48 / chroma_me=1 / trellis=2 / 8x8dct=1 / cqm=0 / deadzone=21,11 / fast_pskip=0 / chroma_qp_offset=-3 / threads=6 / lookahead_threads=1 / sliced_threads=0 / nr=0 / decimate=0 / interlaced=0 / bluray_compat=0 / constrained_intra=0 / bframes=10 / b_pyramid=2 / b_adapt=2 / b_bias=0 / direct=3 / weightb=1 / open_gop=0 / weightp=2 / keyint=240 / keyint_min=24 / scenecut=40 / intra_refresh=0 / rc_lookahead=40 / rc=2pass / mbtree=0 / bitrate=1800 / ratetol=1.0 / qcomp=0.60 / qpmin=0 / qpmax=69 / qpstep=4 / cplxblur=20.0 / qblur=0.5 / vbv_maxrate=50000 / vbv_bufsize=62500 / nal_hrd=none / filler=0 / ip_ratio=1.40 / pb_ratio=1.30 / aq=1:1.00
Default : Да
Forced : Нет
Аудио
Идентификатор : 2
Формат : AC-3
Формат/Информация : Audio Coding 3
Расширение режима : CM (complete main)
Параметр Endianness формата : Big
Идентификатор кодека : A_AC3
Продолжительность : 49 м.
Вид битрейта : Постоянный
Битрейт : 192 Кбит/сек
Каналы : 2 канала
Расположение каналов : Front: L R
Частота : 48,0 КГц
Битовая глубина : 16 бит
Метод сжатия : С потерями
Размер потока : 68,2 Мбайт (10%)
Default : Да
Forced : Нет







реклама партнёра


Вернуться к началу
 Профиль Отправить личное сообщение  
 
   Похожие торренты   Автор   Торрент   Размер 
В этой теме нет новых непрочитанных сообщений. Научи меня жить [01-02 из 12] (Психологический детектив, 2016) HDTVRip от GeneralFilm

marya111

893 | 312

2.8 ГБ

В этой теме нет новых непрочитанных сообщений. Шакал [01 из 08] (Детектив, 2016) WEB-DLRip-AVC от ExKinoRay

marya111

0 | 0

5.79 ГБ

В этой теме нет новых непрочитанных сообщений. Шакал [01 из 08] (Детектив, 2016) WEB-DLRip-AVC от ExKinoRay

marya111

0 | 0

2.19 ГБ

В этой теме нет новых непрочитанных сообщений. Мажор - 2 [01-10 из 12] (2016) WEB-DLRip-AVC от ExKinoRay

marya111

325 | 521

7.18 ГБ

В этой теме нет новых непрочитанных сообщений. Черная кошка [01-10 из 16] (2016) WEB-DLRip-AVC от ExKinoRay

marya111

68 | 114

6.69 ГБ

В этой теме нет новых непрочитанных сообщений. Салам Масква [01-10 из 16] (2016) WEB-DLRip-AVC от ExKinoRay

marya111

0 | 0

7.35 ГБ

В этой теме нет новых непрочитанных сообщений. Коллектор (Драма, триллер, 2016) WEB-DLRip-AVC от ExKinoRay | iTunes

marya111

353 | 11

744.55 МБ


Начать новую тему Ответить на тему  [ 1 сообщение ] 




Для Мосгорсуда, Роскомнадзора и рекламодателей:: mosgorsud-torrent[собачка]yandex.ru