Торрент файл
скачать торрент магнет ссылка Добавлен: 25 ноя 2016, 13:18
Размер: 3.33 ГБ
Сидеров: 27
Личеров: 79
Автор

СообщениеДобавлено: 25 ноя 2016, 13:18 

Не в сети
Дата регистрации:
28 сен 2016, 18:10
Спасибо: 55 / 0
Сообщения: 942
Год выпуска: 2016
Страна США
Жанр:фэнтези, драма, криминал
Продолжительность: ~ 00:45:00
Перевод:Профессиональный многоголосый закадровый(Jaskier)
Субтитры: нет
Режиссер: Нэйтан Хоуп, Грег Биман, Майрзи Алмас
В ролях :Рэйчел Харрис, Лорен Джерман, Кайла Юэлл, Кевин Алехандро, Лесли-Энн Брандт, Д.Б. Вудсайд, Том Эллис, Мэтт Корбой, Скарлет Эстевез
Описание: Люцифер, эксцентричный Король демонов, заскучал на своем троне и решил посетить Лос-Анджелес, после чего он становится консультантом по расследованию убийств при местном полицейском управлении

Без рекламы в видеоряде и звуковой дорожке
    Качество:WEB-DLRip
    Формат: AVI
    Видео кодек: XviD
    Аудио кодеk: MP3
    Видео: 656x368 (1.79:1), 23.976 fps, XviD build 73 ~1074 kbps avg, 0.21 bit/pixel
    Аудио: 48 kHz, MP3, 2/0 (L,R) ch, ~128.00 kbps avg (RUS) Jaskier


Общее
Полное имя : H:Lucifer S02�1.avi
Формат : AVI
Формат/Информация : Audio Video Interleave
Размер файла : 381 Мбайт
Продолжительность : 43 м. 55 с.
Режим общего битрейта : Переменный
Общий поток : 1211 Кбит/сек
Программа кодирования : VirtualDubMod 1.5.10.3 | www.virtualdub-fr.org || (build 2550/release)
Библиотека кодирования : VirtualDubMod build 2550/release
Видео
Идентификатор : 0
Формат : MPEG-4 Visual
Профиль формата : Advanced Simple@L5
Параметр BVOP формата : 1
Параметр QPel формата : Нет
Параметр GMC формата : Без точки перехода
Параметр матрицы формата : Выборочная
Идентификатор кодека : DIVX
Идентификатор кодека/Информация : Project Mayo
Идентификатор кодека/Подсказка : DivX 4
Продолжительность : 43 м. 55 с.
Битрейт : 1074 Кбит/сек
Ширина : 656 пикселей
Высота : 368 пикселей
Соотношение сторон : 16:9
Частота кадров : 23,976 (24000/1001) кадра/сек
Цветовое пространство : YUV
Субдискретизация насыщенности : 4:2:0
Битовая глубина : 8 бит
Тип развёртки : Прогрессивная
Метод сжатия : С потерями
Бит/(Пиксели*Кадры) : 0.186
Размер потока : 337 Мбайт (89%)
Библиотека кодирования : XviD 73
Аудио
Идентификатор : 1
Формат : MPEG Audio
Версия формата : Version 1
Профиль формата : Layer 3
Режим : Joint stereo
Расширение режима : MS Stereo
Идентификатор кодека : 55
Идентификатор кодека/Подсказка : MP3
Продолжительность : 43 м. 55 с.
Вид битрейта : Переменный
Битрейт : 128 Кбит/сек
Каналы : 2 канала
Частота : 48,0 КГц
Метод сжатия : С потерями
Размер потока : 40,2 Мбайт (11%)
Выравнивание : Разделение по промежуткам
Продолжительность промежутка : 42 мс. (1,00 видеокадр)
Время предзагрузки промежутка : 500 мс.






реклама партнёра


Вернуться к началу
 Профиль Отправить личное сообщение  
 
   Похожие торренты   Автор   Торрент   Размер 
В этой теме нет новых непрочитанных сообщений. Люцифер / Lucifer [02x01-07 из 22] (фэнтези, драма, криминал, 2016) WEB-DLRip от Semak | Jaskier

marya111

0 | 0

2.59 ГБ

В этой теме нет новых непрочитанных сообщений. Люцифер / Lucifer [02x01-08 из 22] (фэнтези, драма, криминал, 2016) WEB-DLRip от Semak | Jaskier

marya111

9 | 20

2.96 ГБ

В этой теме нет новых непрочитанных сообщений. Люцифер / Lucifer [02x01-06 из 13] (Фэнтези, драма, ужасы, 2016) WEB-DLRip 1080p | LostFilm

marya111

0 | 0

11 ГБ

В этой теме нет новых непрочитанных сообщений. Люцифер / Lucifer [02x01-06 из 22] (Фэнтези, драма, ужасы, 2016) HDTVRip | IdeaFilm

marya111

0 | 0

3.47 ГБ

В этой теме нет новых непрочитанных сообщений. Люцифер / Lucifer / 2 сезон 1-10 серия из 22 [Фэнтези, драма, ужасы, 2016] WEB-DLRip, Mvo [NewStudio]

salma3

145 | 455

5.19 ГБ

В этой теме нет новых непрочитанных сообщений. Люцифер / Lucifer [02х01-09 из 22] (2016) WEB-DLRip | Sunshine Studio

marya111

87 | 981

4.59 ГБ

В этой теме нет новых непрочитанных сообщений. Люцифер / Lucifer [02х01-09 из 22] (2016) WEB-DLRip 720р | Sunshine Studio

marya111

25 | 368

7.87 ГБ


Начать новую тему Ответить на тему  [ 1 сообщение ] 




Для Мосгорсуда, Роскомнадзора и рекламодателей:: mosgorsud-torrent[собачка]yandex.ru