Торрент файл
скачать торрент магнет ссылка Добавлен: 23 ноя 2016, 22:26
Размер: 2.35 ГБ
Сидеров: 381
Личеров: 26
Статус: (salma3)
Автор

СообщениеДобавлено: 23 ноя 2016, 22:26 

Не в сети
Супермодератор
Аватара пользователя
Дата регистрации:
15 фев 2012, 16:44
Возраст: 27
Спасибо: 5121 / 2089
Сообщения: 17342
Формат: WEB-DLRip-AVC, MKV, H.264, AC3
Режиссер: Ашот Кещян
Жанр: мелодрама, детектив
Продолжительность: 4 x ~ 00:45:00
Год выпуска: 2016

В ролях: Эльвира Болгова, Ольга Морозова, Алексей Зубков, Ксения Николаева, Оксана Коляденко, Александр Ярема, Антонина Макарчук, Яков Кучеревский, Елизавета Зайцева (II), Андрей Исаенко, Сергей Радченко (III)

Описание:
Лене Крапивиной далеко за тридцать, и она отчаянно хочет замуж, но очередной жених сбегает из-под венца. Уже несколько попыток Лены построить семью заканчивались фатально и нелепо. Подруга убеждает Лену, что на ней лежит какое-то заклятье. Героиня обращается к гадалке и выясняет, что заклятье действительно есть. Это своеобразная кара за то, что в прошлом она невольно разрушила отношения трем девушкам. Теперь, чтобы избавиться от заклятья, ей нужно сделать этих девушек счастливыми – помочь найти пару. Лена берется за решение этих трех задач. Но для начала девушек нужно разыскать...



Видео: 1024x576 (16:9), 25 fps, AVC MPEG-4 (x264), , 1600 Кbps avg, 0.109 bit/pixel
Аудио: 44 kHz, AC3, 2/0 (L,R) ch, ~192 kbps
Общее
Уникальный идентификатор : 232943728634936330014865861724914094753 (0xAF3F548A2F28E2FC840E15B213D492A1)
Полное имя : C:\Zamuz.posle.vsex.(2016).WEB-DLRip.(AVC).\01.Zamuz.posle.vsex.2016.WEB-DLRip.(AVC).mkv
Формат : Matroska
Версия формата : Version 2
Размер файла : 615 Мбайт
Продолжительность : 47 м. 55 с.
Общий поток : 1794 Кбит/сек
Дата кодирования : UTC 2016-11-21 00:52:13
Программа кодирования : mkvmerge v7.8.0 ('River Man') 32bit built on Apr 3 2015 12:11:22
Библиотека кодирования : libebml v1.3.1 + libmatroska v1.4.2

Видео
Идентификатор : 1
Формат : AVC
Формат/Информация : Advanced Video Codec
Профиль формата :
Параметр CABAC формата : Да
Параметр ReFrames формата : 9 кадров
Идентификатор кодека : V_MPEG4/ISO/AVC
Продолжительность : 47 м. 55 с.
Битрейт : 1600 Кбит/сек
Ширина : 1024 пикселя
Высота : 576 пикселей
Соотношение сторон : 16:9
Режим частоты кадров : Постоянный
Частота кадров : 25,000 кадров/сек
Цветовое пространство : YUV
Субдискретизация насыщенности : 4:2:0
Битовая глубина : 8 бит
Тип развёртки : Прогрессивная
Бит/(Пиксели*Кадры) : 0.109
Размер потока : 537 Мбайт (87%)
Библиотека кодирования : x264 core 146 r2538 121396c
Настройки программы : cabac=1 / ref=9 / deblock=1:-2:-1 / analyse=0x3:0x113 / me=umh / subme=9 / psy=1 / psy_rd=1.00:0.15 / mixed_ref=1 / me_range=32 / chroma_me=1 / trellis=2 / 8x8dct=1 / cqm=0 / deadzone=21,11 / fast_pskip=0 / chroma_qp_offset=-3 / threads=6 / lookahead_threads=1 / sliced_threads=0 / nr=0 / decimate=1 / interlaced=0 / bluray_compat=0 / constrained_intra=0 / bframes=9 / b_pyramid=2 / b_adapt=2 / b_bias=0 / direct=1 / weightb=1 / open_gop=0 / weightp=2 / keyint=250 / keyint_min=25 / scenecut=40 / intra_refresh=0 / rc_lookahead=40 / rc=2pass / mbtree=1 / bitrate=1600 / ratetol=1.0 / qcomp=0.60 / qpmin=0 / qpmax=69 / qpstep=4 / cplxblur=20.0 / qblur=0.5 / vbv_maxrate=14000 / vbv_bufsize=14000 / nal_hrd=none / filler=0 / ip_ratio=1.40 / aq=2:1.00
Default : Да
Forced : Нет
Цветовой диапазон : Limited
Основные цвета : BT.709
Характеристики трансфера : BT.709
Коэффициенты матрицы : BT.709

Аудио
Идентификатор : 2
Формат : AC-3
Формат/Информация : Audio Coding 3
Расширение режима : CM (complete main)
Параметр Endianness формата : Big
Идентификатор кодека : A_AC3
Продолжительность : 47 м. 55 с.
Вид битрейта : Постоянный
Битрейт : 192 Кбит/сек
Каналы : 2 канала
Расположение каналов : Front: L R
Частота : 44,1 КГц
Частота кадров : 28,711 кадров/сек (1536 spf)
Битовая глубина : 16 бит
Метод сжатия : С потерями
Размер потока : 65,8 Мбайт (11%)
Default : Да
Forced : Нет




_________________



реклама партнёра


Вернуться к началу
 Профиль Отправить личное сообщение  
 
   Похожие торренты   Автор   Торрент   Размер 
В этой теме нет новых непрочитанных сообщений. Выйти замуж любой ценой [01-04 из 04] (Мелодрама, 2016) WEB-DLRip от Files-x

marya111

0 | 0

2.14 ГБ

В этой теме нет новых непрочитанных сообщений. Нераскрытый талант (1-4 серии из 4) [детектив, мелодрама, 2016] WEB-DLRip

salma3

1226 | 670

2.34 ГБ

В этой теме нет новых непрочитанных сообщений. Письма из прошлого / Возвращение к себе (1-4 серии из 4) [детектив, мелодрама, 2016] WEB-DLRip-AVC

salma3

361 | 76

2.25 ГБ

В этой теме нет новых непрочитанных сообщений. Срочно выйду замуж [Комедия, мелодрама, 2015] WEB-DLRip

Dracon

20002 | 1353

1.46 ГБ

В этой теме нет новых непрочитанных сообщений. Коготь из Мавритании 2 (1-4 серии из 4) [детектив, 2016] WEB-DLRip-AVC

salma3

442 | 90

2.36 ГБ

В этой теме нет новых непрочитанных сообщений. Коготь из Мавритании (1-4 серии из 4) [детектив, триллер, 2016] WEB-DLRip-AVC

salma3

91 | 23

2.27 ГБ

В этой теме нет новых непрочитанных сообщений. Портрет любимого (1-4 серии из 4) [мелодрама, 2016] WEB-DLRip

salma3

137 | 16

2.13 ГБ


Начать новую тему Ответить на тему  [ 1 сообщение ] 




Для Мосгорсуда, Роскомнадзора и рекламодателей:: mosgorsud-torrent[собачка]yandex.ru