Торрент файл
скачать торрент магнет ссылка Добавлен: 23 ноя 2016, 17:09
Размер: 78.34 ГБ
Сидеров: 7
Личеров: 13
Статус: (salma3)
Автор

СообщениеДобавлено: 23 ноя 2016, 17:09 

Не в сети
Супермодератор
Аватара пользователя
Дата регистрации:
15 фев 2012, 16:44
Возраст: 27
Спасибо: 5121 / 2089
Сообщения: 17282
Страна: Турция
Производство: Süreç Film
Год выпуска: 2015-2016
Жанр: драма
Продолжительность: 39х ~02:20:00
Режиссер: Садуллах Селен

В ролях: Эмре Кинай, Эврим Аласья, Толга Сарыташ, Бурджу Озберк, Берк Атан, Ханде Эрчел, Фунда Ильхан, Теоман Кумбараджибаси

Описание: Учительница литературы Гюнеш в свои 35 лет уже потеряла надежду встретить свою любовь. У нее есть три дочери, которые она воспитывает. Однажды она знакомится с очаровательным бизнесменом. Он харизматичный, милый, красивый, заботливый. Чтобы добиться ее сердца он приложил немало усилий. И как результат — они женятся, после чего их жизнь здорово изменилась. Оказывается, что семья Халюка Мертоглу не готова к трем дочерям, которые свалились как гром среди ясного неба. Помимо этого и сам Халюк постепенно начинает проявлять свою темную сторону, которую тщательно скрывал долгие годы. Ревность и вспышки гнева становятся частым явлением, объяснение такому поведению довольно шаткие...



Перевод: Любительский (одноголосый, закадровый) | Кристина Филатова / студия Реальный перевод
Субтитры: нет

Качество: WEB-DLRip 720p
Формат: MPEG-4
Видео кодек: AVC
Аудио кодек: АС3
Видео: 1280x720 (16:9), 25.000 fps, MPEG-4 AVC ~2 300 kbps avg
Аудио №1: 48.0 kHz, AC3 Dolby Digital, 2/0 (L,R) ch, ~128 kbps | RUS
Аудио №2: 48.0 kHz, AC3 Dolby Digital, 2/0 (L,R) ch, ~128 kbps | TUR
Дата премьеры (мир): 18 июня 2015

Релиз от: CergMark (CerGold)
General
Complete name : Docheri.Gunesh.19.seriya.2015.WEB-DLRip.(720p).mp4
Format : MPEG-4
Format profile : Base Media
Codec ID : isom
File size : 2.50 GiB
Duration : 2h 20mn
Overall bit rate : 2 553 Kbps
Encoded date : UTC 2016-11-14 18:06:13
Tagged date : UTC 2016-11-14 18:06:13
Video
ID : 1
Format : AVC
Format/Info : Advanced Video Codec
Format profile : High@L3.1
Format settings, CABAC : No
Format settings, ReFrames : 2 frames
Codec ID : avc1
Codec ID/Info : Advanced Video Coding
Duration : 2h 20mn
Bit rate : 2 296 Kbps
Maximum bit rate : 6 788 Kbps
Width : 1 280 pixels
Height : 720 pixels
Display aspect ratio : 16:9
Frame rate mode : Constant
Frame rate : 25.000 fps
Color space : YUV
Chroma subsampling : 4:2:0
Bit depth : 8 bits
Scan type : Progressive
Bits/(Pixel*Frame) : 0.100
Stream size : 2.25 GiB (90%)
Tagged date : UTC 2016-11-14 18:11:21
Audio #1
ID : 2
Format : AC-3
Format/Info : Audio Coding 3
Mode extension : CM (complete main)
Format settings, Endianness : Big
Codec ID : ac-3
Duration : 2h 20mn
Source duration : 2h 20mn
Bit rate mode : Constant
Bit rate : 128 Kbps
Maximum bit rate : 135 Kbps
Channel(s) : 2 channels
Channel positions : Front: L R
Sampling rate : 48.0 KHz
Bit depth : 16 bits
Compression mode : Lossy
Stream size : 129 MiB (5%)
Source stream size : 129 MiB (5%)
Language : Russian
Encoded date : UTC 2016-11-14 18:10:50
Tagged date : UTC 2016-11-14 18:11:21
Audio #2
ID : 3
Format : AC-3
Format/Info : Audio Coding 3
Mode extension : CM (complete main)
Format settings, Endianness : Big
Codec ID : ac-3
Duration : 2h 20mn
Source duration : 2h 20mn
Bit rate mode : Constant
Bit rate : 128 Kbps
Maximum bit rate : 135 Kbps
Channel(s) : 2 channels
Channel positions : Front: L R
Sampling rate : 48.0 KHz
Bit depth : 16 bits
Compression mode : Lossy
Stream size : 129 MiB (5%)
Source stream size : 129 MiB (5%)
Language : Turkish
Encoded date : UTC 2016-11-14 18:11:03
Tagged date : UTC 2016-11-14 18:11:21


_________________



реклама партнёра


Вернуться к началу
 Профиль Отправить личное сообщение  
 
   Похожие торренты   Автор   Торрент   Размер 
В этой теме нет новых непрочитанных сообщений. Дочери Гюнеш / Günesin Kizlari [S01] [драма, 2015-2016] WEB-DLRip, Avo

salma3

9 | 19

45.43 ГБ

В этой теме нет новых непрочитанных сообщений. Взрослые дочери [01-12 из 12] (Андрей Эшпай) [Мелодрама, 2015] HDTVRip 720p

Dracon

46 | 23

18.67 ГБ

В этой теме нет новых непрочитанных сообщений. Последний настоящий мужчина / Last Man Standing [S05] [комедия, 2015-2016] WEB-DLRip 720p, Dub [Paramount Comedy]

salma3

46 | 33

15.29 ГБ

В этой теме нет новых непрочитанных сообщений. Отцы и дочери / Fathers and Daughters [Драма, 2015] HDRip, dvo

Dracon

381 | 10

1.37 ГБ

В этой теме нет новых непрочитанных сообщений. Директор / The Principal [S01] [драма, 2015-2016] WEB-DLRip, Dvo [ViruseProject]

salma3

48 | 30

2.82 ГБ

В этой теме нет новых непрочитанных сообщений. Футбол. Чемпионат России 2016-17. 16-й тур. По горячим следам. 1-й день [30.11] (2016) WEB-DLRip 720p

salma3

9 | 1

1.17 ГБ

В этой теме нет новых непрочитанных сообщений. Сарбджит / Sarbjit [Драма, биография, история, 2016] WEB-DLRip 720p, Dvo

salma3

22 | 7

3 ГБ


Начать новую тему Ответить на тему  [ 1 сообщение ] 




Для Мосгорсуда, Роскомнадзора и рекламодателей:: mosgorsud-torrent[собачка]yandex.ru