Торрент файл
скачать торрент магнет ссылка Добавлен: 21 ноя 2016, 17:52
Размер: 56.11 ГБ
Сидеров: 6
Личеров: 0
Автор

СообщениеДобавлено: 21 ноя 2016, 17:54 

Не в сети
Аватара пользователя
Дата регистрации:
09 авг 2014, 12:07
Спасибо: 49 / 1
Сообщения: 156
Откуда: КРАСНОГОРСК


Элементарно / Elementary Сезон 4, Сезон 4-5, Серия 1-30 из 48



Год выпуска: 2015-2016
Выпущено: США,CBS Television Studios, Hill of Beans Productions
Жанр: Драма, Криминал, Детектив
Продолжительность: 00:44:00
Сезон: 4-5
Серии: 1-30
Количество серий в сезоне: 48

Озвучка 1 :Многоголосое профессиональное закадровое озвучание - NewStudio-Русский


Озвучка 2:Многоголосое профессиональное закадровое озвучание - LostFilm-Русский


Озвучка 3: Профессиональный многоголосый - Английский - Оригинал

Субтитры: Русские , Английские


Официальный сайт



Режиссер: Джон Полсон, Эндрю Бернштейн, Сет Манн и др.

В ролях:Джонни Ли Миллер, Люси Лью, Эйдан Куинн, Джон Майкл Хилл, Натали Дормер, Ато Эссонда, Линда Эмонд, Майкл Ден Деккер, Винни Джонс, Эрик Дженсен и др.

При новости об очередном Шерлоке Холмсе почувствовал некоторый шок с примесью удовольствия, т. к. при всей моей любви к этому персонажу, кажется невозможным бесконечно плодить экранизации этих книг. Однако ещё остались сценаристы с хорошей фантазией, и этот сериал стоит рассматривать скорее не как экранизацию книг Конан Дойла, а как абсолютно иную историю с теми же фамилиями двух главных персонажей.

Структура серий и отношения между персонажами немедля вызывают у меня ассоциации с моим любимым детективным сериалом «Менталист» от этого же канала, т. к. Холмс Джонни Ли Миллера тоже прибегает к уловкам ради успешного завершения расследования и зачастую в открытую провоцирует людей ради подтверждения своей теории. Однако здесь это происходит в менее предсказуемой форме и иногда даже вызывает удивление.

Персонажей, взятых из оригинальных книг, всего трое. Причём их предыстории совершенно отличаются от оригинала, что добавляет интереса.

Шерлок Холмс в исполнении обаятельного британца Джонни Ли Миллера предстаёт с характером, похожим на оригинальный, но в более безэмоциональной форме, а из хобби он сохранил только скрипку, и то с подачи Ватсон.

Доктор Ватсон неожиданно предстаёт женщиной Джоан Ватсон в исполнении «Ангела Чарли» Люси Лью. Отсюда, никакой военной карьеры нет и в помине, и причины приезда к Холмсу самые что ни на есть деловые. Но в итоге они становятся друзьями, при этом она фактически также играет роль миссис Хадсон, которой здесь попросту нет.

Вместо инспектора Лестрейда фигурирует другой полицейский — Грегсон, который в книгах появляется всего один-два раза. Его отметить нечем, т. к. он просто доверяет Холмсу и спокойно терпит его эксцентричность.

У многих этот сериал, как второй «Шерлок Холмс в 21ом веке», непременно вызывает сравнение с британским «Шерлоком», который, без сомнения, великолепен. Однако я считаю, что их можно сравнивать только в мелких деталях, т. к. дух и сюжеты почти совершенно разные. Единственные вещи, вызвавшие у меня ассоциации с сериалом BBC — клетчатый шарф Холмса, позитивное и терпеливое отношение к Шерлоку главы полиции и время действия.

Таким образом, фанатам книжного Шерлока Холмса и версии Василия Ливанова не рекомендую, а просто любителям хорошего детектива — очень даже рекомендую, т. к. воспринимать «Элементарно» как ещё одного Холмса чрезвычайно трудно.





Качество :WEB-DLRip-AVC 1080p
Формат: MKV
Видео кодек: H264
Видео: 4989Кбит/сек,1920х1080(16.9),в 23.976кадр/сек,AVC(High@L4)(CABAC/4 Ref Frames)
Аудио Кодек:AC3
Аудио #1:AC3 , 384 Kbps, 48.0 KHz, 6 ch- - NewStudio
Аудио #2: AC3, 384 Kbps, 48.0 KHz, 6 ch - - LostFilm
Аудио #3: AC3,384 Kbps, 48.0 KHz,6 ch - - English

Звуковая дорожка сделана путем наложения чистого голоса озвучивателей на центральный канал оригинальной дорожки. Качество идентично звуковой дорожке.



СЕЗОН 4

01 Уроки прошлого (The Past Is Parent )
02 Доказательства невидимого (Evidence of Things Not Seen)
03 Попался, теперь ты - это я (Tag, You're Me)
04 Все мои бывшие живут в Эссексе (All My Exes Live in Essex)
05 Подпольные игры (The Games Underfoot)
06 Цена ведения дел (The Cost of Doing Business)
07 Похищенная (Miss Taken)
08 Бремя крови (A Burden of Blood)
09 Машина-убийца ( Murder Ex Machina)
10 Дело об Альма Матер (Alma Matters)
11 Туда, где покоятся мёртвые (Down Where the Dead Delight)
12 С видом на комнату (A View With a Room)
13 Этюд о Шарлотте (A Study in Charlotte)
14 Кто скрывается под маской? (Who is that Masked Man)
15 Вверх, в небеса и вниз, в преисподнюю (Up to Heaven and Down to Hell)
16 Загнанный (Hounded)
17 Ты поймал меня, но кто поймал тебя? (You've Got Me, Who's Got You?)
18 Кто не спрятался (Ready or Not)
19 Ва-банк (All In)
20 Искусство имитирует искусство (Art Imitates Art)
21 Кого ты хотел обмануть? ((Ain't Nothing Like the Real Thing)
22 С ног на голову (Turn it Upside Down)
23 Невидимая рука (The Invisible Hand)
24 Качественное различие (A Difference in Kind)


СЕЗОН 5

01 Двойное помешательство (Folie à Deux)
02Стоимостью в несколько городов(Worth Several Cities)
03 Помоги и поймай ее(Render, and then Seize Her)
04 Конец света или когда упадут небеса(Henny Penny the Sky Is Falling)
05 Поймать охотника за охотниками(To Catch a Predator Predator)
06 Дурное известие(Ill Tidings)




Общее
Уникальный идентификатор : 195183562411460120628004065063046910886 (0x92D6FC9BA691B0A99EB2BCFA7F3693A6)
Полное имя : F:\К ИНО\С Е Р И А Л Ы\Элементарно\Elementary_2015_S04E01_2хRus_Eng[NewStudio_LostFilm]_x264_DD5.1_N.B_WEB-DLRip_1080p\Elementary_2015_S04E01_2хRus_Eng_x264_DD5.1_N.B_WEB-DLRip_1080p.mkv
Формат : Matroska
Версия формата : Version 4 / Version 2
Размер файла : 1,89 Гбайт
Продолжительность : 43 м.
Общий поток : 6266 Кбит/сек
Название фильма : Elementary_2015_S04E01_2хRus_Eng_x264_DD5.1_N.B_WEB-DLRip_1080p
Дата кодирования : UTC 2015-11-19 10:49:05
Программа кодирования : mkvmerge v8.5.2 ('Crosses') 64bit
Библиотека кодирования : libebml v1.3.3 + libmatroska v1.4.4
DURATION : 00:43:15.456000000
NUMBER_OF_FRAMES : 81108
NUMBER_OF_BYTES : 124581888
_STATISTICS_WRITING_APP : mkvmerge v8.5.2 ('Crosses') 64bit
_STATISTICS_WRITING_DATE_UTC : 2015-11-19 10:49:05
_STATISTICS_TAGS : BPS DURATION NUMBER_OF_FRAMES NUMBER_OF_BYTES

Видео
Идентификатор : 1
Формат : AVC
Формат/Информация : Advanced Video Codec
Профиль формата : High@L4
Параметр CABAC формата : Да
Параметр ReFrames формата : 4 кадра
Идентификатор кодека : V_MPEG4/ISO/AVC
Продолжительность : 43 м.
Битрейт : 4989 Кбит/сек
Ширина : 1920 пикселей
Высота : 1080 пикселей
Соотношение сторон : 16:9
Режим частоты кадров : Постоянный
Частота кадров : 23,976 кадра/сек
Цветовое пространство : YUV
Субдискретизация насыщенности : 4:2:0
Битовая глубина : 8 бит
Тип развёртки : Прогрессивная
Бит/(Пиксели*Кадры) : 0.100
Размер потока : 1,51 Гбайт (80%)
Язык : English
Default : Да
Forced : Нет
Цветовой диапазон : Limited
Основные цвета : BT.709
Характеристики трансфера : BT.709
Коэффициенты матрицы : BT.709

Аудио #1
Идентификатор : 4
Формат : AC-3
Формат/Информация : Audio Coding 3
Расширение режима : CM (complete main)
Параметр Endianness формата : Big
Идентификатор кодека : A_AC3
Продолжительность : 43 м.
Вид битрейта : Постоянный
Битрейт : 384 Кбит/сек
Каналы : 6 каналов
Расположение каналов : Front: L C R, Side: L R, LFE
Частота : 48,0 КГц
Метод сжатия : С потерями
Размер потока : 119 Мбайт (6%)
Default : Да
Forced : Нет

Аудио #2
Идентификатор : 5
Формат : AC-3
Формат/Информация : Audio Coding 3
Расширение режима : CM (complete main)
Параметр Endianness формата : Big
Идентификатор кодека : A_AC3
Продолжительность : 43 м.
Вид битрейта : Постоянный
Битрейт : 384 Кбит/сек
Каналы : 6 каналов
Расположение каналов : Front: L C R, Side: L R, LFE
Частота : 48,0 КГц
Метод сжатия : С потерями
Размер потока : 119 Мбайт (6%)
Default : Нет
Forced : Нет

Аудио #3
Идентификатор : 6
Формат : AC-3
Формат/Информация : Audio Coding 3
Расширение режима : CM (complete main)
Параметр Endianness формата : Big
Идентификатор кодека : A_AC3
Продолжительность : 43 м.
Вид битрейта : Постоянный
Битрейт : 384 Кбит/сек
Каналы : 6 каналов
Расположение каналов : Front: L C R, Side: L R, LFE
Частота : 48,0 КГц
Метод сжатия : С потерями
Размер потока : 119 Мбайт (6%)
Default : Нет
Forced : Нет

Текст #1
Идентификатор : 2
Формат : UTF-8
Идентификатор кодека : S_TEXT/UTF8
Идентификатор кодека/Информация : UTF-8 Plain Text
Default : Да
Forced : Нет

Текст #2
Идентификатор : 3
Формат : UTF-8
Идентификатор кодека : S_TEXT/UTF8
Идентификатор кодека/Информация : UTF-8 Plain Text
Default : Нет
Forced : Нет


Общее
Уникальный идентификатор : 177296686494917631419437744264890583098 (0x856219899DF81356B544D4EA8D50883A)
Полное имя : E:\ЭЛЕМЕНТАРНО\Elementary_2015-2016_S04-S05_2хRus_Eng[NewStudio_LostFilm]_x264_DD5.1_N.B_WEB-DLRip_1080p\S05\Elementary_2016_S05E01_2хRus_Eng_x264_DD5.1_N.B_WEB-DLRip_1080p.mkv
Формат : Matroska
Версия формата : Version 4 / Version 2
Размер файла : 2,01 Гбайт
Продолжительность : 42 м. 56 с.
Общий поток : 6691 Кбит/сек
Название фильма : Elementary_2016_S05E01_2хRus_Eng_x264_DD5.1_N.B_WEB-DLRip_1080p
Дата кодирования : UTC 2016-10-23 04:07:04
Программа кодирования : mkvmerge v9.5.0 ('Quiet Fire') 64bit
Библиотека кодирования : libebml v1.3.4 + libmatroska v1.4.5

Видео
Идентификатор : 1
Формат : AVC
Формат/Информация : Advanced Video Codec
Профиль формата : High@L4
Параметр CABAC формата : Да
Параметр ReFrames формата : 4 кадра
Идентификатор кодека : V_MPEG4/ISO/AVC
Продолжительность : 42 м. 55 с.
Битрейт : 5280 Кбит/сек
Ширина : 1920 пикселей
Высота : 1080 пикселей
Соотношение сторон : 16:9
Режим частоты кадров : Постоянный
Частота кадров : 23,976 (24000/1001) кадра/сек
Цветовое пространство : YUV
Субдискретизация насыщенности : 4:2:0
Битовая глубина : 8 бит
Тип развёртки : Прогрессивная
Бит/(Пиксели*Кадры) : 0.106
Размер потока : 1,58 Гбайт (79%)
Заголовок : Elementary_2016_S05E01_2хRus_Eng_x264_DD5.1_N.B_WEB-DLRip_1080p
Язык : English
Default : Да
Forced : Нет
Цветовой диапазон : Limited
Основные цвета : BT.709
Характеристики трансфера : BT.709
Коэффициенты матрицы : BT.709

Аудио #1
Идентификатор : 4
Формат : AC-3
Формат/Информация : Audio Coding 3
Расширение режима : CM (complete main)
Параметр Endianness формата : Big
Идентификатор кодека : A_AC3
Продолжительность : 42 м. 55 с.
Вид битрейта : Постоянный
Битрейт : 384 Кбит/сек
Каналы : 6 каналов
Расположение каналов : Front: L C R, Side: L R, LFE
Частота : 48,0 КГц
Частота кадров : 31,250 кадров/сек (1536 spf)
Метод сжатия : С потерями
Размер потока : 118 Мбайт (6%)
Заголовок : MVO LostFilm @DD5.1 AC3, 384 Kbps, 48.0 KHz, 6 ch
Язык : Russian
Default : Да
Forced : Нет

Аудио #2
Идентификатор : 5
Формат : AC-3
Формат/Информация : Audio Coding 3
Расширение режима : CM (complete main)
Параметр Endianness формата : Big
Идентификатор кодека : A_AC3
Продолжительность : 42 м. 56 с.
Вид битрейта : Постоянный
Битрейт : 384 Кбит/сек
Каналы : 6 каналов
Расположение каналов : Front: L C R, Side: L R, LFE
Частота : 48,0 КГц
Частота кадров : 31,250 кадров/сек (1536 spf)
Метод сжатия : С потерями
Размер потока : 118 Мбайт (6%)
Заголовок : MVO NewStudio @DD5.1 AC3, 384 Kbps, 48.0 KHz, 6 ch
Язык : Russian
Default : Нет
Forced : Нет

Аудио #3
Идентификатор : 6
Формат : AC-3
Формат/Информация : Audio Coding 3
Расширение режима : CM (complete main)
Параметр Endianness формата : Big
Идентификатор кодека : A_AC3
Продолжительность : 42 м. 55 с.
Вид битрейта : Постоянный
Битрейт : 640 Кбит/сек
Каналы : 6 каналов
Расположение каналов : Front: L C R, Side: L R, LFE
Частота : 48,0 КГц
Частота кадров : 31,250 кадров/сек (1536 spf)
Метод сжатия : С потерями
Размер потока : 196 Мбайт (10%)
Заголовок : Original@DD5.1 AC3 ,640 Kbps, 48.0 KHz, 6 ch
Язык : English
Default : Нет
Forced : Нет

Текст #1
Идентификатор : 2
Формат : UTF-8
Идентификатор кодека : S_TEXT/UTF8
Идентификатор кодека/Информация : UTF-8 Plain Text
Продолжительность : 42 м. 42 с.
Битрейт : 172 бит/сек
Count of elements : 958
Размер потока : 54,0 Кбайт (0%)
Заголовок : Rus
Язык : Russian
Default : Да
Forced : Нет

Текст #2
Идентификатор : 3
Формат : UTF-8
Идентификатор кодека : S_TEXT/UTF8
Идентификатор кодека/Информация : UTF-8 Plain Text
Продолжительность : 42 м. 31 с.
Битрейт : 101 бит/сек
Count of elements : 953
Размер потока : 31,7 Кбайт (0%)
Заголовок : Original
Язык : English
Default : Нет
Forced : Нет








СЕЗОН 4

СЕЗОН 5

Внимание! Раздача пополняется по мере выхода новых серий!


Раздача ведётся путём добавления новых серий; при каждом добавлении создётся новый торрент.
Чтобы начать докачку новой серии, пользователям необходимо сделать следующее:
1. остановить скачивание,
2. удалить старый торрент у себя из клиента (старые серии удалять не надо),
3. скачать новый торрент и запустить его у себя в клиенте вместо старого, при этом указать клиенту путь в старую папку, куда и должно происходить скачивание новых серий.

Ваш клиент при этом должен произвести хеширование (проверку) старой папки (если не производит сам - помогите ему сделать это), и будет докачивать только те серии которых у вас ещё нет. Старые серии при этом не удаляются, а продолжают раздаваться!

Eсли вы уже удалили старые серии, то предотвратить повторную закачку старых серий можно, отжав галочку в соответсвующих местах при запуске нового торрента. По возможности, желательно не удалять старые серии как можно дольше, чтобы релизёр не столько продолжал раздавать старые серии, а смог сконцентрироваться на новых.

Совет для тех, кто не хочет ждать перехеширования:
Создайте ещё одну папку рядом с папкой сериала (рядом, а не в ней!!!). Каждую новую серию после удачной загрузки копируйте в новую папку так чтобы ваша основная папка всегда была пуста. Когда ваш новый торрент предложит вам закачать все файлы, выберете только последнюю. Для сидирования же укажите адрес новой папки.

Как закачать отдельный файл из торрента или докачать ранее пропущенные файлы торрента!

1. Открыть торрент
2. Снять галки с тех файлов торрента, которые мы не хотим закачивать. Оставляем только на нужных нам файлах (файле).
3. Нажать О.К.

В клиенте utorrent

Инструкция

1) Открыть торрент


2) Снять галки с тех файлов торрента, которые мы не хотим закачивать:

* либо вручную, снимая с каждого файла галку( скрин №1)
* либо, нажав кнопку "Снять метки (Select None)", сняв сразу со всех файлов(скрин №2)
№1

№2

Оставляем только на нужных нам файлах (файле).

3)Нажать О.К







Внимание!!! 21.11. 2016. РАЗДАЧА ОБНОВЛЕНА. ОБНОВИТЕ ТОРЕНТ ФАЙЛ.ПРИЯТНОГО ПРОСМОТРА .


Релиз от: Nikolai.Baranov & PIRATIYA







_________________

Легко быть оптимистом, когда судьба не валит с ног тяжелыми ударами, а лишь иногда легонько шлепает по заднице.



реклама партнёра


Вернуться к началу
 Профиль Отправить личное сообщение  
 
   Похожие торренты   Автор   Торрент   Размер 
В этой теме нет новых непрочитанных сообщений. Элементарно / Elementary (Сезон 4, Серия 1-18 из 24) (Джон Полсон, Эндрю Бернштейн, Сет Манн ) [2015-2016 , Драма, Криминал, Детектив , WEB-DLRip-AVC 1080p] [MVO] [NewStudio , LostFilm , English] + [Subs Rus,ENG]

Враг Нароода

0 | 0

33.6 ГБ

В этой теме нет новых непрочитанных сообщений. Лучше звоните Солу / Better Call Saul (Сезон 2, Серия 1-10 из 10) (Колин Бакси, Адам Бернштейн, Винс Гиллиган) [2016 , Драма, комедия, криминал , WEB-DLRip 1080p] [Kravec , LostFilm , NewStudio , Jaskier , English] + [Subs Rus , Eng]

Враг Нароода

0 | 0

22.88 ГБ

В этой теме нет новых непрочитанных сообщений. Готэм / Gotham (Сезон 2, Серия 1-13 из 22) (Дэнни Кэннон, Т.Дж. Скотт, Дермотт Даунс) [2015-2016 , триллер, драма, криминал , WEB-DLRip 1080p] [HamsterStudio , LostFilm , NewStudio , English] + [Subs Rus , Eng]

Враг Нароода

0 | 0

26.26 ГБ

В этой теме нет новых непрочитанных сообщений. Элементарно / Elementary / 5 сезон 1-8 серия из 24 [Драма, криминал, детектив, 2016] WEB-DLRip, Mvo [LostFilm]

salma3

436 | 1065

3.91 ГБ

В этой теме нет новых непрочитанных сообщений. Лучше звоните Солу / Better Call Saul (Сезон 2, Серия 1-6 из 10) (Колин Бакси, Адам Бернштейн, Винс Гиллиган) [2016 , Драма, комедия, криминал , WEB-DLRip 1080p] [Kravec , LostFilm , NewStudio , Jaskier] + [Subs Rus , Eng]

Враг Нароода

0 | 0

13.57 ГБ

В этой теме нет новых непрочитанных сообщений. Элементарно / Elementary [S04] (Джон Дэвид Коулз, Майкл Куэста, Род Холкомб) [2015, Драма, криминал, детектив, WEB-DLRip | LostFilm]

Nickolas3435

779 | 832

8.74 ГБ

В этой теме нет новых непрочитанных сообщений. Элементарно / Elementary [04х01-23 из 24] (Джон Дэвид Коулз, Майкл Куэста, Род Холкомб) [2015, Драма, криминал, детектив, WEB-DLRip | NewStudio]

Dracon

59 | 161

12.36 ГБ


Начать новую тему Ответить на тему  [ 1 сообщение ] 




Для Мосгорсуда, Роскомнадзора и рекламодателей:: mosgorsud-torrent[собачка]yandex.ru