Торрент файл
скачать торрент магнет ссылка Добавлен: 17 ноя 2016, 23:30
Размер: 5.79 ГБ
Сидеров: 0
Личеров: 0
Автор

СообщениеДобавлено: 17 ноя 2016, 23:30 

Не в сети
Дата регистрации:
28 сен 2016, 18:10
Спасибо: 62 / 0
Сообщения: 1040
Информация о фильме
Название: Шакал
Год выхода: 2016
Жанр: Детектив
Режиссер: Евгений Звездаков
В ролях: Андрей Смоляков, Марина Александрова, Екатерина Климова, Вадим Андреев, Алексей Бардуков, Павел Чинарёв, Александра Бортич, Сергей Белов, Юрий Ицков, Андрей Феськов, Юрий Чурсин, Юрий Тарасов, Сергей Жигунов, Ирина Старшенбаум, Сергей Юшкевич, Анна Котова, Даниэла Стоянович, Мария Андреева, Игорь Филиппов, Дмитрий Мазуров, Ксения Щербакова, Александр Дробитько, Саша Лебедева, Мария Козлова, Ирина Цывина, Дмитрий Гусев, Анастасия Стежко, Владимир Юматов, Анастасия Фурса, Филипп Гуревич, Луиза Мосендз, Елизавета Зарубина, Сергей Угрюмов, Надежда Маркина, Пётр Рыков, Сергей Колесников (II)
О фильме:
Начало 1970-х. Майор Черкасов и его команда расследуют новое дело. На этот раз речь идет об ограблениях. А это сфера отдела по борьбе с хищениями социалистической собственности (ОБХСС). Во время грабежей бандиты беспощадно убивают свидетелей. Ограбления организованы четко и продумано. И готовит их кто-то очень осведомленный. Руководство принимает решение объединить против "беспредельщиков" усилия двух ведомств московской милиции: МВД и ОБХСС.

Страна: Россия
Студия: Студия "Русский проект", "Красный квадрат"
Продолжительность: 1 х ~ 00:52:00
Язык: Русский
Файл
Качество: WEB-DLRip (AVC)
Видео: MPEG-4 AVC, 1800 Кбит/с, 1024x576
Аудио: AC3, 2 ch, 192 Кбит/с
Продолжительность: 1 х ~ 00:52:00
Язык: Русский
General
Unique ID : 197059118403390769287920309900835094052 (0x944034A8697C62AEA8728A40F848FE24)
Complete name : E:Nataliarelizy11.2016Shakal.2016.WEB-DLRip.AVC.ExKinoRayShakal.(01.seriya).2016.WEB-DLRip.(AVC).ExKinoRay.mkv
Format : Matroska
Format version : Version 2
File size : 761 MiB
Duration : 52 min
Overall bit rate : 2 013 kb/s
Encoded date : UTC 2016-11-14 22:56:06
Writing application : mkvmerge v7.6.0 ('Garden of Dreams') 32bit built on Feb 11 2015 00:18:47
Writing library : libebml v1.3.1 + libmatroska v1.4.2
Video
ID : 1
Format : AVC
Format/Info : Advanced Video Codec
Format profile : High@L4.1
Format settings, CABAC : Yes
Format settings, ReFrames : 11 frames
Codec ID : V_MPEG4/ISO/AVC
Duration : 52 min
Bit rate : 1 820 kb/s
Width : 1 024 pixels
Height : 576 pixels
Display aspect ratio : 16:9
Frame rate mode : Constant
Frame rate : 25.000 FPS
Color space : YUV
Chroma subsampling : 4:2:0
Bit depth : 8 bits
Scan type : Progressive
Bits/(Pixel*Frame) : 0.123
Stream size : 673 MiB (88%)
Writing library : x264 core 144 r2525 40bb568
Encoding settings : cabac=1 / ref=11 / deblock=1:-2:-2 / analyse=0x3:0x113 / me=umh / subme=10 / psy=1 / psy_rd=1.05:0.10 / mixed_ref=1 / me_range=32 / chroma_me=1 / trellis=2 / 8x8dct=1 / cqm=0 / deadzone=21,11 / fast_pskip=0 / chroma_qp_offset=-3 / threads=12 / lookahead_threads=2 / sliced_threads=0 / nr=0 / decimate=0 / interlaced=0 / bluray_compat=0 / constrained_intra=0 / bframes=9 / b_pyramid=2 / b_adapt=2 / b_bias=0 / direct=3 / weightb=1 / open_gop=0 / weightp=2 / keyint=250 / keyint_min=25 / scenecut=40 / intra_refresh=0 / rc_lookahead=40 / rc=2pass / mbtree=0 / bitrate=1820 / ratetol=1.0 / qcomp=0.60 / qpmin=0 / qpmax=51 / qpstep=4 / cplxblur=20.0 / qblur=0.5 / vbv_maxrate=50000 / vbv_bufsize=62500 / nal_hrd=none / filler=0 / ip_ratio=1.40 / pb_ratio=1.30 / aq=1:1.00
Default : Yes
Forced : No
Color range : Limited
Color primaries : BT.709
Transfer characteristics : BT.709
Matrix coefficients : BT.709
Audio
ID : 2
Format : AC-3
Format/Info : Audio Coding 3
Mode extension : CM (complete main)
Format settings, Endianness : Big
Codec ID : A_AC3
Duration : 52 min
Bit rate mode : Constant
Bit rate : 192 kb/s
Channel(s) : 2 channels
Channel positions : Front: L R
Sampling rate : 48.0 kHz
Frame rate : 31.250 FPS (1536 spf)
Compression mode : Lossy
Stream size : 72.6 MiB (10%)
Default : Yes
Forced : No


Без рекламы.
Релиз от:
Автор релиза:




реклама партнёра


Вернуться к началу
 Профиль Отправить личное сообщение  
 
   Похожие торренты   Автор   Торрент   Размер 
В этой теме нет новых непрочитанных сообщений. Шакал [01 из 08] (Детектив, 2016) WEB-DLRip-AVC от ExKinoRay

marya111

0 | 0

2.19 ГБ

В этой теме нет новых непрочитанных сообщений. Научи меня жить [01-10 из 12] (Психологический детектив, 2016) WEB-DLRip-AVC от ExKinoRay

marya111

184 | 189

7.07 ГБ

В этой теме нет новых непрочитанных сообщений. Шакал [01-08 из 08] [Детектив, 2016] HDTVRip

marya111

951 | 382

4.34 ГБ

В этой теме нет новых непрочитанных сообщений. Мажор - 2 [01-10 из 12] (2016) WEB-DLRip-AVC от ExKinoRay

marya111

325 | 521

7.18 ГБ

В этой теме нет новых непрочитанных сообщений. Черная кошка [01-10 из 16] (2016) WEB-DLRip-AVC от ExKinoRay

marya111

68 | 114

6.69 ГБ

В этой теме нет новых непрочитанных сообщений. Салам Масква [01-10 из 16] (2016) WEB-DLRip-AVC от ExKinoRay

marya111

0 | 0

7.35 ГБ

В этой теме нет новых непрочитанных сообщений. Лео и Тиг [01 из 05] (Мультфильм, комедия, семейный, полнометражный, 2016) WEB-DLRip от ExKinoRay

marya111

0 | 0

154.13 МБ


Начать новую тему Ответить на тему  [ 1 сообщение ] 




Для Мосгорсуда, Роскомнадзора и рекламодателей:: mosgorsud-torrent[собачка]yandex.ru