Торрент файл
скачать торрент магнет ссылка Добавлен: 17 ноя 2016, 23:30
Размер: 2.18 ГБ
Сидеров: 0
Личеров: 0
Автор

СообщениеДобавлено: 17 ноя 2016, 23:30 

Не в сети
Дата регистрации:
28 сен 2016, 18:10
Спасибо: 55 / 0
Сообщения: 942
Информация о фильме
Оригинальное название: Мажор - 2
Год выпуска: 2016
Жанр: Криминал, драма
Режиссер: Николай Булыгин, Максим Полинский
В ролях: Павел Прилучный, Карина Разумовская, Дмитрий Шевченко, Денис Шведов, Александр Обласов, Никита Панфилов, Дана Абызова, Олег Гаас, Анна Цуканова-Котт, Любовь Аксёнова, Игорь Жижикин, Дмитрий Лысенков, Анна Вартанян, Вера Брежнева, Эмилия Спивак, Вадим Лымарь, Алла Еминцева, Виктор Цекало, Галина Сидорова, Константин Фисенко, Сергей Сафронов, Кира Кауфман
О фильме:
Неожиданно для всех Игоря Соколовского выпускают из СИЗО, сняв все обвинения в покушении на жизнь бизнесмена Игнатьева. Но Мажор выходит с одним-единственным желанием — отомстить, так как он считает Игнатьева виновным в смерти отца и матери. Соколовский возвращается на службу в полицию, возглавляет бизнес отца, который перешел ему по наследству, заводит красивый и яркий роман с Катей. Мучается из-за отношений с Викой — они так и не смогли забыть друг друга. И день за днем торопит развязку — уничтожение Игнатьева. Но что будет после того, как цель достигнута? После того, как придется посмотреть на победу с другой стороны

Страна: Россия
Студия: Продюсерский центр «Среда»
Продолжительность: 2 x ~ 00:49:00
Перевод: Не требуется
Файл
Формат: avi
Качество: HDTVRip
Видео: XviD build 73, 656x368 (16:9), 25.000 fps, ~ 940 Kbps (~ 0.155 bit/pixel)
Звук: 48.0 kHz, MP3, 2/0 ch, 128 kbps
Субтитры: нет
General
Complete name : Mazhor.2.2016.XviD.HDTVRip.GeneralFilmSerija.01.avi
Format : AVI
Format/Info : Audio Video Interleave
File size : 373 MiB
Duration : 48mn 26s
Overall bit rate : 1 076 Kbps
Writing application : VirtualDubMod 1.5.10.3 | www.virtualdub-fr.org || (build 2550/release)
Writing library : VirtualDubMod build 2550/release
Video
ID : 0
Format : MPEG-4 Visual
Format profile : Advanced Simple@L5
Format settings, BVOP : 1
Format settings, QPel : No
Format settings, GMC : No warppoints
Format settings, Matrix : Custom
Codec ID : XVID
Codec ID/Hint : XviD
Duration : 48mn 26s
Bit rate : 938 Kbps
Width : 656 pixels
Height : 368 pixels
Display aspect ratio : 16:9
Frame rate : 25.000 fps
Color space : YUV
Chroma subsampling : 4:2:0
Bit depth : 8 bits
Scan type : Progressive
Compression mode : Lossy
Bits/(Pixel*Frame) : 0.155
Stream size : 325 MiB (87%)
Writing library : XviD 73
Audio
ID : 1
Format : MPEG Audio
Format version : Version 1
Format profile : Layer 3
Codec ID : 55
Codec ID/Hint : MP3
Duration : 48mn 26s
Bit rate mode : Constant
Bit rate : 128 Kbps
Channel(s) : 2 channels
Sampling rate : 48.0 KHz
Compression mode : Lossy
Stream size : 44.4 MiB (12%)
Alignment : Aligned on interleaves
Interleave, duration : 40 ms (1.00 video frame)
Interleave, preload duratio : 504 ms
Writing library : LAME3.99r
Encoding settings : -m s -V 4 -q 0 -lowpass 17 -b 128




Релиз от:




реклама партнёра


Вернуться к началу
 Профиль Отправить личное сообщение  
 
   Похожие торренты   Автор   Торрент   Размер 
В этой теме нет новых непрочитанных сообщений. Мажор - 2 [S02] [Криминал, драма, 2016] HDTVRip

salma3

2663 | 2089

8.58 ГБ

В этой теме нет новых непрочитанных сообщений. Мажор - 2 [01-04 из 12] (Криминал, драма, 2016) HDTVRip-AVC от Files-x

marya111

93 | 79

4.66 ГБ

В этой теме нет новых непрочитанных сообщений. Мажор - 2 [01-02 из 12] ( Драма, криминал, 2016) HDTVRip-AVC от ExKinoRay

marya111

64 | 14

1.32 ГБ

В этой теме нет новых непрочитанных сообщений. Мажор [S02] [Криминал, драма, 2016] WEB-DLRip [КПК]

salma3

362 | 281

2.5 ГБ

В этой теме нет новых непрочитанных сообщений. Мажор (2 сезон: 1-12 серии из 12) [криминал, драма, детектив, 2016] WEB-DLRip-AVC

salma3

778 | 1367

8.61 ГБ

В этой теме нет новых непрочитанных сообщений. Любой ценой / Hell or High Water (Драма, криминал, 2016) BDRip от GeneralFilm | iTunes

marya111

102 | 10

1.41 ГБ

В этой теме нет новых непрочитанных сообщений. Лео и Тиг [01 из 05] ( Мультфильм, комедия, семейный, полнометражный, 2016) HDTVRip от Generalfilm

marya111

0 | 0

150.58 МБ


Начать новую тему Ответить на тему  [ 1 сообщение ] 




Для Мосгорсуда, Роскомнадзора и рекламодателей:: mosgorsud-torrent[собачка]yandex.ru