Торрент файл
скачать торрент магнет ссылка Добавлен: 04 ноя 2016, 02:22
Размер: 33.74 ГБ
Сидеров: 0
Личеров: 0
Автор

СообщениеДобавлено: 04 ноя 2016, 02:22 

Не в сети
Дата регистрации:
28 сен 2016, 18:10
Спасибо: 55 / 0
Сообщения: 942
Название: Бесстыдники
Оригинальное название: Shameless
Год выхода: 2015
Страна: США
Студия: Bonanza Productions, John Wells Productions, Warner Bros. Television
Продолжительность: 12 x ~ 55:00
Жанр: драма, комедия, ...
Режиссер: Марк Майлод, Кристофер Чулак, Мими Ледер, ...
В ролях: Уильям Х. Мэйси, Эмми Россам, Камерон Монахэн, Джереми Аллен Уайт, Эмма Кинни, Итэн Каткоски, Блейк Александр Джонсон, Бреннан Кэйн Джонсон, Шанола Хэмптон, Стив Хоуи, Джоан Кьюсак, Ноэль Фишер, Эмма Гринвелл, Джэйк Макдорман, ...
Перевод: Профессиональный (многоголосный, закадровый) AlexFilm
О фильме: Американский ремейк британского сериала, повествующий о взбалмошной многодетной семье Галлахеров и их соседях, которые веселятся, попадают в самые невероятные ситуации и пытаются выжить в этом мире всеми возможными средствами, но при этом как можно меньше работая…

Кодек: x264
Качество: BDRip 720p
Видео: 1280x720, ~5200 kbps, 23,976 fps
Аудио #1: AC-3, 6 ch, 640 kbps (Rus) - AlexFilm
Аудио #2: DTS, 6 ch, 1509 kbps (Eng)
Субтитры: Русские, Английские
Общее
Уникальный идентификатор : 231542918421589846412909284261328003806 (0xAE318B4393BE67AC895989C162FF22DE)
Полное имя : Бесстыдники (Shameless) US S06 2016 BDRip 720p AlexFilmShameless US E01 S06 2016 BDRip 720p AlexFilm.mkv
Формат : Matroska
Версия формата : Version 2
Размер файла : 2,90 Гбайт
Продолжительность : 56 м.
Общий поток : 7292 Кбит/сек
Дата кодирования : UTC 2016-10-18 12:21:24
Программа кодирования : mkvmerge v4.0.0 ('The Stars were mine') сборка от Jun 6 2010 16:18:42
Библиотека кодирования : libebml v1.0.0 + libmatroska v1.0.0
Видео
Идентификатор : 1
Формат : AVC
Формат/Информация : Advanced Video Codec
Профиль формата : High@L4.1
Параметр CABAC формата : Да
Параметр ReFrames формата : 5 кадров
Идентификатор кодека : V_MPEG4/ISO/AVC
Продолжительность : 56 м.
Битрейт : 5142 Кбит/сек
Ширина : 1280 пикселей
Высота : 720 пикселей
Соотношение сторон : 16:9
Режим частоты кадров : Постоянный
Частота кадров : 23,976 кадра/сек
Цветовое пространство : YUV
Субдискретизация насыщенности : 4:2:0
Битовая глубина : 8 бит
Тип развёртки : Прогрессивная
Бит/(Пиксели*Кадры) : 0.233
Размер потока : 1,99 Гбайт (69%)
Библиотека кодирования : x264 core 148 r2692 64f4e24
Настройки программы : cabac=1 / ref=5 / deblock=1:0:0 / analyse=0x3:0x133 / me=umh / subme=7 / psy=1 / psy_rd=1.00:0.00 / mixed_ref=1 / me_range=16 / chroma_me=1 / trellis=1 / 8x8dct=1 / cqm=0 / deadzone=21,11 / fast_pskip=0 / chroma_qp_offset=-2 / threads=22 / lookahead_threads=3 / sliced_threads=0 / nr=0 / decimate=1 / interlaced=0 / bluray_compat=0 / constrained_intra=0 / bframes=3 / b_pyramid=2 / b_adapt=1 / b_bias=0 / direct=1 / weightb=1 / open_gop=0 / weightp=2 / keyint=250 / keyint_min=23 / scenecut=40 / intra_refresh=0 / rc_lookahead=40 / rc=2pass / mbtree=1 / bitrate=5142 / ratetol=1.0 / qcomp=0.60 / qpmin=0 / qpmax=69 / qpstep=4 / cplxblur=20.0 / qblur=0.5 / ip_ratio=1.40 / aq=1:1.00
Язык : English
Default : Нет
Forced : Нет
Аудио #1
Идентификатор : 2
Формат : AC-3
Формат/Информация : Audio Coding 3
Расширение режима : CM (complete main)
Параметр Endianness формата : Big
Идентификатор кодека : A_AC3
Продолжительность : 56 м.
Вид битрейта : Постоянный
Битрейт : 640 Кбит/сек
Каналы : 6 каналов
Расположение каналов : Front: L C R, Side: L R, LFE
Частота : 48,0 КГц
Частота кадров : 31,250 кадров/сек (1536 spf)
Метод сжатия : С потерями
Размер потока : 261 Мбайт (9%)
Заголовок : AlexFilm
Язык : Russian
Default : Нет
Forced : Нет
Аудио #2
Идентификатор : 3
Формат : DTS
Формат/Информация : Digital Theater Systems
Режим : 16
Параметр Endianness формата : Big
Идентификатор кодека : A_DTS
Продолжительность : 56 м.
Вид битрейта : Постоянный
Битрейт : 1509 Кбит/сек
Каналы : 6 каналов
Расположение каналов : Front: L C R, Side: L R, LFE
Частота : 48,0 КГц
Частота кадров : 93,750 кадра/сек (512 spf)
Битовая глубина : 24 бит
Метод сжатия : С потерями
Задержка видео : 11 мс.
Размер потока : 614 Мбайт (21%)
Язык : English
Default : Нет
Forced : Нет
Текст #1
Идентификатор : 4
Формат : UTF-8
Идентификатор кодека : S_TEXT/UTF8
Идентификатор кодека/Информация : UTF-8 Plain Text
Язык : Russian
Default : Нет
Forced : Нет
Текст #2
Идентификатор : 5
Формат : UTF-8
Идентификатор кодека : S_TEXT/UTF8
Идентификатор кодека/Информация : UTF-8 Plain Text
Язык : English
Default : Нет
Forced : Нет
Текст #3
Идентификатор : 6
Формат : UTF-8
Идентификатор кодека : S_TEXT/UTF8
Идентификатор кодека/Информация : UTF-8 Plain Text
Заголовок : SDH
Язык : English
Default : Нет
Forced : Нет






реклама партнёра


Вернуться к началу
 Профиль Отправить личное сообщение  
 
   Похожие торренты   Автор   Торрент   Размер 
В этой теме нет новых непрочитанных сообщений. Бесстыжие / Бесстыдники / Shameless (US) [05x01-09 из 12] (Марк Майлод, Джон Уэллс, Мими Ледер) [2015, драма, комедия, HDTVRip 720p | AlexFilm]

Nickolas3435

10 | 26

12.17 ГБ

В этой теме нет новых непрочитанных сообщений. Бесстыжие / Бесстыдники / Shameless (US) [05x01-12 из 12] (Марк Майлод, Джон Уэллс, Мими Ледер) [2015, драма, комедия, HDTVRip 720p | AlexFilm]

Nickolas3435

124 | 204

16.08 ГБ

В этой теме нет новых непрочитанных сообщений. Бесстыжие / Бесстыдники / Shameless (US) [05x01-08 из 12] (Марк Майлод, Джон Уэллс, Мими Ледер, Санаа Хамри, Питер Сигал) [2015, драма, комедия, HDTVRip 720p | AlexFilm]

Nickolas3435

23 | 33

10.82 ГБ

В этой теме нет новых непрочитанных сообщений. Бесстыжие / Бесстыдники / Shameless (US) [05x01-04 из 12] (Марк Майлод, Джон Уэллс, Мими Ледер, Санаа Хамри, Питер Сигал) [2015, драма, комедия, HDTVRip 720p | AlexFilm]

Nickolas3435

31 | 22

5.6 ГБ

В этой теме нет новых непрочитанных сообщений. Бесстыжие / Бесстыдники / Shameless (US) [05x01-02 из 12] (Марк Майлод, Джон Уэллс, Мими Ледер, Санаа Хамри, Питер Сигал) [2015, драма, комедия, HDTVRip 720p | AlexFilm]

Nickolas3435

57 | 10

3.02 ГБ

В этой теме нет новых непрочитанных сообщений. Бесстыжие / Бесстыдники / Shameless (US) [05x01-04 из 12] (Марк Майлод, Джон Уэллс, Мими Ледер) [2015, драма, комедия, HDTVRip | AlexFilm]

Nickolas3435

97 | 137

2.49 ГБ

В этой теме нет новых непрочитанных сообщений. Бесстыжие / Бесстыдники / Shameless (US) [05x01-09 из 12] (Марк Майлод, Джон Уэллс, Мими Ледер) [2015, драма, комедия, HDTVRip | AlexFilm]

Nickolas3435

64 | 68

5.61 ГБ


Начать новую тему Ответить на тему  [ 1 сообщение ] 




Для Мосгорсуда, Роскомнадзора и рекламодателей:: mosgorsud-torrent[собачка]yandex.ru