Торрент файл
скачать торрент магнет ссылка Добавлен: 30 окт 2016, 11:37
Размер: 11.35 ГБ
Сидеров: 6
Личеров: 3
Автор

СообщениеДобавлено: 30 окт 2016, 11:37 

Не в сети
Аватара пользователя
Дата регистрации:
09 авг 2014, 12:07
Спасибо: 48 / 1
Сообщения: 156
Откуда: КРАСНОГОРСК
Беги! / RUN! Серии 1-4 из 4



Год выпуска: 2016
Выпущено: Россия, ООО «Студия Грин Фильм», ООО «ПРИОР Продакшн»
Жанр:Боевик, детектив, криминал
Продолжительность: 00:45:00
Серии: 1-4
Количество серий в сезоне: 4

Озвучка : -Русский

Субтитры: НЕТ





Режиссер:
Андрей Волгин, Максим Кондратенко

В ролях: Павел Прилучный, Денис Шведов, Иван Жидков, Екатерина Редникова, Светлана Смирнова-Марцинкевич, Михаил Трясоруков, Вячеслав Гумеров, Сергей Колос, Александр Кудренко, Татьяна Казючиц, Владимир Крылов, Сергей Харитонов



Капитан полиции Николай Маркин едет в расположение колонии строгого режима где-то в тайге. У него секретное задание. Но добраться до колонии он не успевает: в трех километрах от въезда в зону Николай становится свидетелем побега заключенного, Дмитрия Воронкова. Ни секунды не колеблясь, офицер бросается в лес в погоню за преступником. В отличие от заключенного, который явно готовился к побегу, у Николая нет ни карты, ни продуктов, ни оружия. Тем не менее, он упорно следует за беглецом.

Два разных человека — заключенный и служитель закона — по воле судьбы переплетают свои жизни воедино. В течение нескольких дней произойдет масса невероятных событий, полностью переворачивающих отношение зрителя к происходящему на экране. В лучших традициях «Подозрительных лиц» ("Usual suspects») до самого конца истории мы не будем знать, кто же главный злодей и будем подозревать по очереди всех! Но какая же история без любви? Два друга, ставшие непримиримыми врагами, и красивая женщина между ними… Этот «классический любовный треугольник» обернется не одним сюрпризом! Массу интересных и порой шокирующих открытий предстоит сделать зрителю в ходе нашей истории: кто «подставил» и засадил Воронкова за решетку, почему преследователи пытаются убить капитана Маркина, что прячет «беглец» Дмитрий Воронков, какой правды он ищет… и почему непримиримые враги «спина-к-спине» защищают друг друга?





Качество : HDTV 1080i
Формат: MKV
Видео кодек: H264
Видео: 8382Kбит/сек,1920х1080(16.9),в 25.027кадр/сек,AVC (High@L4)(CABAC/2 Ref Frames)
Аудио Кодек:AC3
Аудио #:AC3 , 384 Kbps, 48.0 KHz, 6 ch-Русский

Общее
Уникальный идентификатор : 182041322957223984849223976265019169320 (0x88F3E22D0CF8133E9DEF64E4D33A1A28)
Полное имя : C:\МОЙ ДОСУГ\НАШЕ КИНО\БЕГИ!\RUN_2016_E01-E04_Russia_x264_DD5.1_N.B_HDTV_1080i\RUN_2016_E01-E04_Russia_x264_DD5.1_N.B_HDTV_1080i.mkv
Формат : Matroska
Версия формата : Version 4 / Version 2
Размер файла : 11,0 Гбайт
Продолжительность : 2 ч. 58 м.
Режим общего битрейта : Переменный
Общий поток : 8768 Кбит/сек
Название фильма : RUN_2016_E01-E04_Russia_x264_DD5.1_N.B_HDTV_1080i
Дата кодирования : UTC 2016-10-29 15:29:52
Программа кодирования : mkvmerge v9.5.0 ('Quiet Fire') 64bit
Библиотека кодирования : libebml v1.3.4 + libmatroska v1.4.5

Видео
Идентификатор : 1
Формат : AVC
Формат/Информация : Advanced Video Codec
Профиль формата : High@L4
Параметр CABAC формата : Да
Параметр ReFrames формата : 2 кадра
Параметр GOP формата : M=2, N=15
Идентификатор кодека : V_MPEG4/ISO/AVC
Продолжительность : 2 ч. 58 м.
Вид битрейта : Переменный
Битрейт : 8382 Кбит/сек
Максимальный битрейт : 16,0 Мбит/сек
Ширина : 1920 пикселей
Высота : 1080 пикселей
Соотношение сторон : 16:9
Режим частоты кадров : Переменный
Частота кадров : 25,027 кадров/сек
Частота кадров в оригинале : 29,970 (30000/1001) кадров/сек
Цветовое пространство : YUV
Субдискретизация насыщенности : 4:2:0
Битовая глубина : 8 бит
Тип развёртки : Прогрессивная
Бит/(Пиксели*Кадры) : 0.162
Размер потока : 10,5 Гбайт (96%)
Заголовок : RUN_2016_E01-E04_Russia_x264_DD5.1_N.B_HDTV_1080i
Язык : Russian
Default : Нет
Forced : Нет

Аудио
Идентификатор : 2
Формат : AC-3
Формат/Информация : Audio Coding 3
Расширение режима : CM (complete main)
Параметр Endianness формата : Big
Идентификатор кодека : A_AC3
Продолжительность : 2 ч. 58 м.
Вид битрейта : Постоянный
Битрейт : 384 Кбит/сек
Каналы : 6 каналов
Расположение каналов : Front: L C R, Side: L R, LFE
Частота : 48,0 КГц
Частота кадров : 31,250 кадров/сек (1536 spf)
Метод сжатия : С потерями
Размер потока : 492 Мбайт (4%)
Заголовок : Rus
Язык : Russian
Default : Нет
Forced : Нет













Релиз от: Nikolai.Baranov & PIRATIYA







_________________

Легко быть оптимистом, когда судьба не валит с ног тяжелыми ударами, а лишь иногда легонько шлепает по заднице.



реклама партнёра


Вернуться к началу
 Профиль Отправить личное сообщение  
 
   Похожие торренты   Автор   Торрент   Размер 
В этой теме нет новых непрочитанных сообщений. Беги, мальчик, беги / Lauf Junge lauf [боевик, драма, военный, 2013] HDTV 1080p, Mvo

salma3

62 | 9

3.88 ГБ

В этой теме нет новых непрочитанных сообщений. Беги, мальчик, беги / Lauf Junge lauf [боевик, драма, военный, 2013] HDTVRip-AVC, Mvo

salma3

95 | 5

1.37 ГБ

В этой теме нет новых непрочитанных сообщений. Беги без оглядки / Running Scared [Боевик, Комедия, Триллер, Криминал, 1986] HDTVRip-AVC, Avo+Dvo

salma3

31 | 0

2.31 ГБ

В этой теме нет новых непрочитанных сообщений. Палач (Вячеслав Никифоров) (Серии 1-10 из 10 ) [2014 , Детектив, криминал, триллер , HDTVRip 1080p]

Враг Нароода

1 | 1

26.57 ГБ

В этой теме нет новых непрочитанных сообщений. Паук / Гознак (Евгений Звездаков) (Серии 1-8 из 8) [2015 , Детектив, криминал, триллер , HDTVRip 1080p]

Враг Нароода

4 | 2

24.38 ГБ

В этой теме нет новых непрочитанных сообщений. Стрела / Arrow [05х01-07 из 23] (фантастика, боевик, драма, криминал, детектив, приключения, 2016) HDTVRip | Sunshine Studio

marya111

111 | 535

3 ГБ

В этой теме нет новых непрочитанных сообщений. Отпуск по ранению (Кирилл Капица) (Серии 1-4 из 4) [2014 , Драма, боевик, криминал , HDTVRip 1080p]

Враг Нароода

0 | 0

8.91 ГБ


Начать новую тему Ответить на тему  [ 1 сообщение ] 




Для Мосгорсуда, Роскомнадзора и рекламодателей:: mosgorsud-torrent[собачка]yandex.ru