Торрент файл
скачать торрент магнет ссылка Добавлен: 29 окт 2016, 03:48
Размер: 4.35 ГБ
Сидеров: 3
Личеров: 3
Статус: (salma3)
Автор

СообщениеДобавлено: 29 окт 2016, 03:48 

Не в сети
Дата регистрации:
28 сен 2016, 18:10
Спасибо: 55 / 0
Сообщения: 942
Год выпуска: 2014-2015
Жанр: Боевик, криминал
Режиссер: Владимир Койфман

В ролях: Вадим Андреев, Максим Щёголев, Денис Матросов, Владислав Дунаев, Евгений Гусев, Сергей Пиоро, Ольга Куликова, Дмитрий Грачев (II), Артём Кобзев, Сергей Колешня, Елена Любимова, Екатерина Михайлова (III), Александр Никольский, Поля Полякова, Валентин Самохин, Тимофей Смирнов, Максим Терлецкий, Константин Тополага, Руслан Ягудин, Николай Бендера, Алексей Бояджи, Дмитрий Буренков, Ольга Молочная, Денис Первойкин, Сесиль Свердлова, Руслан Спояло, Александр Числов, Сергей Васильев (VII), Ирина Крохина, Андрей Белозеров, Сергей Усков, Андрей Негривода, Дмитрий Юмашев, Ксения Суркова, Андрей Зайцев (II), Алексей Овсянников

О фильме:
Во втором сезоне сериала «Профиль убийцы» зрители вновь встретятся с уже знакомыми им профайлерами – сотрудниками особого отдела, занимающегося раскрытием серийных убийств и изнасилований по всей России. Полковники Удальцов (Денис Матросов), Петров (Вадим Андреев), подполковник Круглов (Максим Щеголев) и капитан Субботина (Ольга Куликова) – ребята с железными нервами и острым умом. Они анализируют поведение маньяков, входя в их образ, проникая в их сознание.В новом сезоне отдел профайлеров значительно поредел – на пенсию отправили полковника Петрова. Но работы так много, что Петров постоянно помогает коллегам в качестве эксперта и научного консультанта. В разработку группы попадает маньяк провозгласивший себя Миссионером, он истребляет всех заблудших и сбившихся с правильного пути людей - бродяг, проституток. Этот контингент не побежит жаловаться в полицию, что их кто-то преследует. До них никому нет дела… Профайлерам удастся раскрыть преступление двадцатилетней давности, и даже спасти от неминуемого суда своего руководителя - генерала Губанова.Но герои сериала не только опытные сыщики с изощренным умом. Они такие же люди, как и все, и им тоже, подчас, не хватает простых человеческих радостей и положительных эмоций. Возможно, что им они нужны даже больше чем обычным людям. Удальцов встретит свою первую любовь, и пожар любви вспыхнет с новой силой. Круглов и Субботина неоднократно пытаются назначить день свадьбы, но каждый раз очередное дело отрывает их от счастливого дня. Это становится серьезной проблемой для пары. Но перспектив к облегчению работы, увы, никаких. Дела становиться все запутанней и страшней. Каждое новое дело - это новая жуткая трагедия и чем быстрее профайлеры составят «профиль убийцы», тем больше жизней им удастся уберечь.



Страна: Россия
Студия: ООО "Студия "Центр Кинопроизводства", ООО "Форвард-фильм"
Продолжительность: 12 x ~ 00:47:00
Перевод: Не требуется
Файл
Формат: AVI
Качество: HDTVRip
Видео: XviD build 73, 688x384 (16:9), 25.000 fps, ~ 990 Kbps (~ 0.150 bit/pixel)
Звук: 48.0 kHz, MP3, 2/0 ch, 128 kbps
Субтитры: нет
General
Complete name : Profilj.Ubijcy.2.2014.HDTVRip.GeneralFilmSerija.01.avi
Format : AVI
Format/Info : Audio Video Interleave
File size : 371 MiB
Duration : 46mn 2s
Overall bit rate : 1 127 Kbps
Writing application : VirtualDubMod 1.5.10.3 | www.virtualdub-fr.org || (build 2550/release)
Writing library : VirtualDubMod build 2550/release
Video
ID : 0
Format : MPEG-4 Visual
Format profile : Advanced Simple@L5
Format settings, BVOP : 1
Format settings, QPel : No
Format settings, GMC : No warppoints
Format settings, Matrix : Custom
Codec ID : XVID
Codec ID/Hint : XviD
Duration : 46mn 2s
Bit rate : 989 Kbps
Width : 688 pixels
Height : 384 pixels
Display aspect ratio : 16:9
Frame rate : 25.000 fps
Color space : YUV
Chroma subsampling : 4:2:0
Bit depth : 8 bits
Scan type : Progressive
Compression mode : Lossy
Bits/(Pixel*Frame) : 0.150
Stream size : 326 MiB (88%)
Writing library : XviD 73
Audio
ID : 1
Format : MPEG Audio
Format version : Version 1
Format profile : Layer 3
Codec ID : 55
Codec ID/Hint : MP3
Duration : 46mn 2s
Bit rate mode : Constant
Bit rate : 128 Kbps
Channel(s) : 2 channels
Sampling rate : 48.0 KHz
Compression mode : Lossy
Stream size : 42.2 MiB (11%)
Alignment : Aligned on interleaves
Interleave, duration : 40 ms (1.00 video frame)
Interleave, preload duratio : 504 ms
Writing library : LAME3.99r
Encoding settings : -m s -V 4 -q 0 -lowpass 17 -b 128





Релиз от:
Исходник:




реклама партнёра


Вернуться к началу
 Профиль Отправить личное сообщение  
 
   Похожие торренты   Автор   Торрент   Размер 
В этой теме нет новых непрочитанных сообщений. Профиль убийцы / Profile of a Killer [Tриллер, 2012] SATRip, Dvo

salma3

669 | 45

1.37 ГБ

В этой теме нет новых непрочитанных сообщений. Профиль убийцы / Profile of a Killer [Tриллер, 2012] HDTV 1080i, Dvo [НТВ+]

salma3

19 | 5

4 ГБ

В этой теме нет новых непрочитанных сообщений. Жертва / Prey [02х01-02 из 03] (Ник Мерфи, Льюис Арнольд) [2015, триллер, драма, криминал, HDTVRip | SunshineStudio]

PriZraK

20 | 1

1019.74 МБ

В этой теме нет новых непрочитанных сообщений. Меч [02х01-20 из 20] + Пролог (Алексей Луканев) [Детектив, боевик, криминал, 2015] HDTV 720p

Dracon

459 | 241

31.8 ГБ

В этой теме нет новых непрочитанных сообщений. Меч [02х01-20 из 20] + Пролог (Алексей Луканев) [Детектив, боевик, криминал, 2015] HDTV 1080i

Dracon

281 | 169

54.85 ГБ

В этой теме нет новых непрочитанных сообщений. Скорпион / Scorpion [02х01-11 из 22] (Гэри Фледер, Дуайт Х. Литтл, Бобби Рот) [2015, Драма, боевик, HDTVRip | IdeaFilm]

Nickolas3435

0 | 0

5.78 ГБ

В этой теме нет новых непрочитанных сообщений. Скорпион / Scorpion [02х01-23 из 24] (Гэри Фледер, Дуайт Х. Литтл, Бобби Рот) [2015, Драма, боевик, HDTVRip | IdeaFilm]

Dracon

36 | 64

11.52 ГБ


Начать новую тему Ответить на тему  [ 1 сообщение ] 




Для Мосгорсуда, Роскомнадзора и рекламодателей:: mosgorsud-torrent[собачка]yandex.ru