Торрент файл
скачать торрент магнет ссылка Добавлен: 29 окт 2016, 03:47
Размер: 4.34 ГБ
Сидеров: 434
Личеров: 127
Статус: (salma3)
Автор

СообщениеДобавлено: 29 окт 2016, 03:47 

Не в сети
Дата регистрации:
28 сен 2016, 18:10
Спасибо: 55 / 0
Сообщения: 942
Год выпуска: 2015
Жанр: Детектив
Режиссер: Сергей Щербин

В ролях: Владислав Резник, Юрий Батурин, Мария Капустинская, Заза Чантурия, Нино Нинидзе, Сергей Кудрявцев, Юрий Ицков, Сергей Барковский, Лука Тархан-Моурави, Наталья Ткаченко

О фильме:
Лето 1980. Москва готовится к Олимпиаде. Все силы КГБ и МВД брошены на поддержание правопорядка. Но, несмотря на все предпринятые меры, в столице происходит череда громких ограблений. Среди них – дерзкая кража шедевра старого мастера из Музея изобразительных искусств. Следователь Алексей Ставров любой ценой должен вернуть полотно до начала Олимпиады, ведь на карте – репутация страны. Однако дело оказывается намного сложнее, чем можно было предположить: его истоки – в событиях 1945 года, а замешаны в нем художники и ученые, лимитчицы и интуристы, воры в законе и люди в погонах...



Страна: Россия
Студия: ООО "Централ Партнершип"
Продолжительность: 8 x ~ 00:51:00
Перевод: Не требуется
Файл
Формат: AVI
Качество: HDTVRip
Видео: XviD build 73, 704x400 (16:9), 25.000 fps, ~ 1300 Kbps (~ 0.185 bit/pixel)
Звук: 48.0 kHz, MP3, 2/0 ch, 128 kbps
Субтитры: нет
General
Complete name : Voshozhdenije.Na.Olimp.2016.WEB-DLRip.GeneralFilm\01.serija.avi
Format : AVI
Format/Info : Audio Video Interleave
File size : 556 MiB
Duration : 53mn 59s
Overall bit rate : 1 441 Kbps
Writing application : VirtualDubMod 1.5.10.3 | www.virtualdub-fr.org || (build 2550/release)
Writing library : VirtualDubMod build 2550/release
Video
ID : 0
Format : MPEG-4 Visual
Format profile : Advanced Simple@L5
Format settings, BVOP : 1
Format settings, QPel : No
Format settings, GMC : No warppoints
Format settings, Matrix : Custom
Codec ID : XVID
Codec ID/Hint : XviD
Duration : 53mn 59s
Bit rate : 1 303 Kbps
Width : 704 pixels
Height : 400 pixels
Display aspect ratio : 16:9
Frame rate : 25.000 fps
Color space : YUV
Chroma subsampling : 4:2:0
Bit depth : 8 bits
Scan type : Progressive
Compression mode : Lossy
Bits/(Pixel*Frame) : 0.185
Stream size : 503 MiB (90%)
Writing library : XviD 73
Audio
ID : 1
Format : MPEG Audio
Format version : Version 1
Format profile : Layer 3
Codec ID : 55
Codec ID/Hint : MP3
Duration : 53mn 59s
Bit rate mode : Constant
Bit rate : 128 Kbps
Channel(s) : 2 channels
Sampling rate : 48.0 KHz
Compression mode : Lossy
Stream size : 49.4 MiB (9%)
Alignment : Aligned on interleaves
Interleave, duration : 40 ms (1.00 video frame)
Interleave, preload duratio : 504 ms
Writing library : LAME3.99r
Encoding settings : -m s -V 4 -q 0 -lowpass 17 -b 128



Релиз от:




реклама партнёра


Вернуться к началу
 Профиль Отправить личное сообщение  
 
   Похожие торренты   Автор   Торрент   Размер 
В этой теме нет новых непрочитанных сообщений. Олимп / Olympus [01x01-13 из 13] (Аманда Таппинг, Ник Уиллинг) [Драма, фэнтези, 2015] HDTVRip [Jaskier]

Dracon

39 | 12

7.48 ГБ

В этой теме нет новых непрочитанных сообщений. Восхождение Юпитер / Jupiter Ascending (Энди Вачовски, Лана Вачовски) [фантастика, фэнтези, боевик, приключения, 2015] WEB-DLRip 720p, Dub [iTunes]

Dracon

59 | 4

4.07 ГБ

В этой теме нет новых непрочитанных сообщений. Олимп / Olympus [01x01-13 из 13] (Аманда Таппинг, Ник Уиллинг) [Драма, фэнтези, 2015] HDTV 720p [Jaskier]

Dracon

93 | 36

11.78 ГБ

В этой теме нет новых непрочитанных сообщений. Восхождение Сокола / Falcon Rising [боевик, приключения, 2014] WEB-DLRip, Avo

salma3

2411 | 101

1.46 ГБ

В этой теме нет новых непрочитанных сообщений. Восхождение Сокола / Falcon Rising [боевик, приключения, 2014] WEB-DLRip, avo

Dracon

560 | 33

2.82 ГБ

В этой теме нет новых непрочитанных сообщений. Восхождение Юпитер / Jupiter Ascending [фантастика, боевик, приключения, 2015] HDRip, Avo [Живов]

salma3

943 | 57

1.45 ГБ

В этой теме нет новых непрочитанных сообщений. Леди-детектив мисс Фрайни Фишер / Miss Fisher's Murder Mysteries / 3 сезон 1-8 серии из 8 [Детектив, криминал, драма, 2015] WEB-DLRip, Mvo [ViruseProject]

salma3

250 | 82

4.71 ГБ


Начать новую тему Ответить на тему  [ 1 сообщение ] 




Для Мосгорсуда, Роскомнадзора и рекламодателей:: mosgorsud-torrent[собачка]yandex.ru