Торрент файл
скачать торрент магнет ссылка Добавлен: 29 окт 2016, 03:46
Размер: 2.15 ГБ
Сидеров: 110
Личеров: 15
Статус: (salma3)
Автор

СообщениеДобавлено: 29 окт 2016, 03:46 

Не в сети
Дата регистрации:
28 сен 2016, 18:10
Спасибо: 62 / 0
Сообщения: 1040
Без права на ошибку[/color]

Страна: Россия
Жанр: мелодрама
Год выпуска: 2016
Продолжительность: 01:33:57
Cубтитры: нет
Оригинальная аудиодорожка: русский
Количество серий: 1 - 2 из 2
Режиссер: Александр Высоковский

В ролях: Илья Ермолов, Наталья Капитонова, Александра Ермакова, Влад Канопка, Игорь Сигов, Ольга Дятловская, Александр Бранкевич, Ирина Рымарова-Шапо, Василий Козлов, Виктор Васильев, Зоя Антонова, Арсений Евстифеев

Описание:
Провинциальный город. Друзья Антон и Олег борются за внимание одноклассницы Кати. Антон - сын богатого и влиятельного отца. В его жизни все определяют деньги, и парень привык с их помощью получать все, что захочет. Олег из бедной семьи, он полагается только на себя - золотой медалист и отличник, мечтает о научной карьере. Парни, при всем различии между ними, похожи внешне. Но Катя не отдает никому предпочтения: она понимает, что для Антона она лишь очередной трофей. А к застенчивому Олегу Катя относится по-дружески. Но все меняется, когда троица, после окончания школы приезжает в Москву поступать. Начинается взрослая жизнь, и теперь у каждого из них не будет права на ошибку.



Релиз:
Автор рипа: stalkerok
Сэмпл
Качество видео: HDTVRip-AVC [HDTV 1080i / wowa63 Files-x]
Формат видео: MKV
Видео кодек: AVC
Аудио кодек: AC3
Видео #1: 1502 Кбит/сек, 1024*578 (16:9), в 25,000 кадров/сек, AVC
Видео #2: 1373 Кбит/сек, 1024*578 (16:9), в 25,000 кадров/сек, AVC
Аудио: русский, 192 Кбит/сек, 48 КГц, 16 бит, 2.0, AC3[/font]
01
x264 [info]: frame I:789 Avg QP:16.72 size: 49766
x264 [info]: frame P:37112 Avg QP:17.99 size: 16714
x264 [info]: frame B:103025 Avg QP:21.04 size: 3869
Общее
Уникальный идентификатор : 213223056210528276297411483619266563478 (0xA06944522DFD6E729856BF4384CA8D96)
Полное имя : M:3RipsBez prava na oshibkuBez.prava.na.oshibku.2016.HDTVRip-AVC.stalkerok.new-teamBez.prava.na.oshibku.01.2016.HDTVRip-AVC.stalkerok.new-team.mkv
Формат : Matroska
Версия формата : Version 4 / Version 2
Размер файла : 1,11 Гбайт
Продолжительность : 1 ч. 33 м.
Общий поток : 1696 Кбит/сек
Название фильма : Без права на ошибку (2016) (Rip by stalkerok)
Дата кодирования : UTC 2016-10-23 15:02:29
Программа кодирования : mkvmerge v8.6.1 ('Flying') 64bit
Библиотека кодирования : libebml v1.3.3 + libmatroska v1.4.4
Видео
Идентификатор : 1
Формат : AVC
Формат/Информация : Advanced Video Codec
Профиль формата : High@L4.1
Параметр CABAC формата : Да
Параметр ReFrames формата : 13 кадров
Идентификатор кодека : V_MPEG4/ISO/AVC
Продолжительность : 1 ч. 33 м.
Битрейт : 1502 Кбит/сек
Ширина : 1024 пикселя
Высота : 578 пикселей
Соотношение сторон : 16:9
Режим частоты кадров : Постоянный
Частота кадров : 25,000 кадров/сек
Цветовое пространство : YUV
Субдискретизация насыщенности : 4:2:0
Битовая глубина : 8 бит
Тип развёртки : Прогрессивная
Бит/(Пиксели*Кадры) : 0.101
Размер потока : 1009 Мбайт (89%)
Заголовок : Без права на ошибку (2016) (Rip by stalkerok)
Библиотека кодирования : x264 core 148 r2705+54 9f484c1 t_mod_Custom [8-bit@all X86_64]
Настройки программы : cabac=1 / ref=13 / deblock=1:-3:-2 / analyse=0x3:0x133 / me=umh / subme=10 / psy=1 / fade_compensate=0.00 / psy_rd=1.00:0.00 / mixed_ref=1 / me_range=32 / chroma_me=1 / trellis=2 / 8x8dct=1 / cqm=0 / deadzone=21,11 / fast_pskip=0 / chroma_qp_offset=-2 / threads=12 / lookahead_threads=3 / sliced_threads=0 / nr=0 / decimate=1 / interlaced=0 / bluray_compat=0 / constrained_intra=0 / fgo=0 / bframes=14 / b_pyramid=2 / b_adapt=2 / b_bias=0 / direct=3 / weightb=1 / open_gop=0 / weightp=2 / keyint=250 / keyint_min=25 / scenecut=40 / intra_refresh=0 / rc_lookahead=60 / rc=crf / mbtree=0 / crf=19.0000 / qcomp=0.65 / qpmin=0:0:0 / qpmax=69:69:69 / qpstep=4 / vbv_maxrate=50000 / vbv_bufsize=62500 / crf_max=0.0 / nal_hrd=none / filler=0 / ip_ratio=1.35 / pb_ratio=1.30 / aq=3:0.80 / aq-sensitivity=10.00 / aq-factor=1.00:1.00:1.00 / aq2=0 / aq3=0
Default : Да
Forced : Нет
Аудио
Идентификатор : 2
Формат : AC-3
Формат/Информация : Audio Coding 3
Расширение режима : CM (complete main)
Параметр Endianness формата : Big
Идентификатор кодека : A_AC3
Продолжительность : 1 ч. 33 м.
Вид битрейта : Постоянный
Битрейт : 192 Кбит/сек
Каналы : 2 канала
Расположение каналов : Front: L R
Частота : 48,0 КГц
Частота кадров : 31,250 кадров/сек (1536 spf)
Метод сжатия : С потерями
Размер потока : 129 Мбайт (11%)
Язык : Russian
Default : Да
Forced : Нет
02
x264 [info]: frame I:851 Avg QP:16.50 size: 50981
x264 [info]: frame P:36907 Avg QP:17.74 size: 15553
x264 [info]: frame B:104147 Avg QP:20.78 size: 3428
Общее
Уникальный идентификатор : 181626529925719161095449432026002104675 (0x88A3FF4CF31D3010B38F6B73BC462163)
Полное имя : M:3RipsBez prava na oshibkuBez.prava.na.oshibku.2016.HDTVRip-AVC.stalkerok.new-teamBez.prava.na.oshibku.02.2016.HDTVRip-AVC.stalkerok.new-team.mkv
Формат : Matroska
Версия формата : Version 4 / Version 2
Размер файла : 1,04 Гбайт
Продолжительность : 1 ч. 34 м.
Общий поток : 1567 Кбит/сек
Название фильма : Без права на ошибку (2016) (Rip by stalkerok)
Дата кодирования : UTC 2016-10-23 17:19:33
Программа кодирования : mkvmerge v8.6.1 ('Flying') 64bit
Библиотека кодирования : libebml v1.3.3 + libmatroska v1.4.4
Видео
Идентификатор : 1
Формат : AVC
Формат/Информация : Advanced Video Codec
Профиль формата : High@L4.1
Параметр CABAC формата : Да
Параметр ReFrames формата : 13 кадров
Идентификатор кодека : V_MPEG4/ISO/AVC
Продолжительность : 1 ч. 34 м.
Битрейт : 1373 Кбит/сек
Ширина : 1024 пикселя
Высота : 578 пикселей
Соотношение сторон : 16:9
Режим частоты кадров : Постоянный
Частота кадров : 25,000 кадров/сек
Цветовое пространство : YUV
Субдискретизация насыщенности : 4:2:0
Битовая глубина : 8 бит
Тип развёртки : Прогрессивная
Бит/(Пиксели*Кадры) : 0.093
Размер потока : 929 Мбайт (88%)
Заголовок : Без права на ошибку (2016) (Rip by stalkerok)
Библиотека кодирования : x264 core 148 r2705+54 9f484c1 t_mod_Custom [8-bit@all X86_64]
Настройки программы : cabac=1 / ref=13 / deblock=1:-3:-2 / analyse=0x3:0x133 / me=umh / subme=10 / psy=1 / fade_compensate=0.00 / psy_rd=1.00:0.00 / mixed_ref=1 / me_range=32 / chroma_me=1 / trellis=2 / 8x8dct=1 / cqm=0 / deadzone=21,11 / fast_pskip=0 / chroma_qp_offset=-2 / threads=12 / lookahead_threads=3 / sliced_threads=0 / nr=0 / decimate=1 / interlaced=0 / bluray_compat=0 / constrained_intra=0 / fgo=0 / bframes=14 / b_pyramid=2 / b_adapt=2 / b_bias=0 / direct=3 / weightb=1 / open_gop=0 / weightp=2 / keyint=250 / keyint_min=25 / scenecut=40 / intra_refresh=0 / rc_lookahead=60 / rc=crf / mbtree=0 / crf=19.0000 / qcomp=0.65 / qpmin=0:0:0 / qpmax=69:69:69 / qpstep=4 / vbv_maxrate=50000 / vbv_bufsize=62500 / crf_max=0.0 / nal_hrd=none / filler=0 / ip_ratio=1.35 / pb_ratio=1.30 / aq=3:0.80 / aq-sensitivity=10.00 / aq-factor=1.00:1.00:1.00 / aq2=0 / aq3=0
Default : Да
Forced : Нет
Аудио
Идентификатор : 2
Формат : AC-3
Формат/Информация : Audio Coding 3
Расширение режима : CM (complete main)
Параметр Endianness формата : Big
Идентификатор кодека : A_AC3
Продолжительность : 1 ч. 34 м.
Вид битрейта : Постоянный
Битрейт : 192 Кбит/сек
Каналы : 2 канала
Расположение каналов : Front: L R
Частота : 48,0 КГц
Частота кадров : 31,250 кадров/сек (1536 spf)
Метод сжатия : С потерями
Размер потока : 130 Мбайт (12%)
Язык : Russian
Default : Да
Forced : Нет

[




реклама партнёра


Вернуться к началу
 Профиль Отправить личное сообщение  
 
   Похожие торренты   Автор   Торрент   Размер 
В этой теме нет новых непрочитанных сообщений. Злая судьба [01-02 из 02] [Мелодрама, 2016] HDTVRip

marya111

814 | 98

2.73 ГБ

В этой теме нет новых непрочитанных сообщений. Злая судьба [01 из 02] [Мелодрама, 2016] HDTVRip-AVC

marya111

234 | 61

2.73 ГБ

В этой теме нет новых непрочитанных сообщений. Последний лепесток [Мелодрама, 2016] HDTVRip-AVC

salma3

364 | 69

1.38 ГБ

В этой теме нет новых непрочитанных сообщений. Соучастники [криминал, мелодрама, 2016] HDTVRip

salma3

915 | 147

1.37 ГБ

В этой теме нет новых непрочитанных сообщений. Последний лепесток [Мелодрама, 2016] HDTVRip

salma3

199 | 27

746.28 МБ

В этой теме нет новых непрочитанных сообщений. Спасенная любовь [01-04 из 04] [Мелодрама, 2016] HDTVRip 720p

Dracon

146 | 34

7.39 ГБ

В этой теме нет новых непрочитанных сообщений. Разбитые сердца [01 из 02] (Мелодрама, 2016) HDTVRip от Files-x

marya111

0 | 0

2.74 ГБ


Начать новую тему Ответить на тему  [ 1 сообщение ] 




Для Мосгорсуда, Роскомнадзора и рекламодателей:: mosgorsud-torrent[собачка]yandex.ru