Торрент файл
скачать торрент магнет ссылка Добавлен: 25 окт 2016, 01:13
Размер: 4.34 ГБ
Сидеров: 951
Личеров: 382
Статус: (salma3)
Автор

СообщениеДобавлено: 25 окт 2016, 01:13 

Не в сети
Дата регистрации:
28 сен 2016, 18:10
Спасибо: 55 / 0
Сообщения: 942
Год выпуска: 2016
Жанр: Детектив
Режиссер: Евгений Звездаков

В ролях: Андрей Смоляков, Марина Александрова, Екатерина Климова, Вадим Андреев, Алексей Бардуков, Павел Чинарёв, Александра Бортич, Сергей Белов, Юрий Ицков, Андрей Феськов, Юрий Чурсин,

О фильме:
Начало 1970-х. Майор Черкасов и его команда расследуют новое дело. На этот раз речь идет об ограблениях. А это сфера отдела по борьбе с хищениями социалистической собственности (ОБХСС). Во время грабежей бандиты беспощадно убивают свидетелей. Ограбления организованы четко и продумано. И готовит их кто-то очень осведомленный. Руководство принимает решение объединить против "беспредельщиков" усилия двух ведомств московской милиции: МВД и ОБХСС.



Страна: Россия
Студия: Студия "Русский проект", "Красный квадрат"
Продолжительность: 8 x ~ 00:51:00
Перевод: Не требуется

Файл
Формат: AVI
Качество: HDTVRip
Видео: XviD build 73, 704x400 (16:9), 25.000 fps, ~ 1370 Kbps (~ 0.200 bit/pixel)
Звук: 48.0 kHz, MP3, 2/0 ch, 128 kbps
Субтитры: нет

General
Complete name : SHAKAL.2016.XviD.HDTVRip.GeneralFilmSerija.01.avi
Format : AVI
Format/Info : Audio Video Interleave
File size : 556 MiB
Duration : 51mn 46s
Overall bit rate : 1 501 Kbps
Writing application : VirtualDubMod 1.5.10.3 | www.virtualdub-fr.org || (build 2550/release)
Writing library : VirtualDubMod build 2550/release
Video
ID : 0
Format : MPEG-4 Visual
Format profile : Advanced Simple@L5
Format settings, BVOP : 1
Format settings, QPel : No
Format settings, GMC : No warppoints
Format settings, Matrix : Custom
Codec ID : XVID
Codec ID/Hint : XviD
Duration : 51mn 46s
Bit rate : 1 363 Kbps
Width : 704 pixels
Height : 400 pixels
Display aspect ratio : 16:9
Frame rate : 25.000 fps
Color space : YUV
Chroma subsampling : 4:2:0
Bit depth : 8 bits
Scan type : Progressive
Compression mode : Lossy
Bits/(Pixel*Frame) : 0.194
Stream size : 505 MiB (91%)
Writing library : XviD 73
Audio
ID : 1
Format : MPEG Audio
Format version : Version 1
Format profile : Layer 3
Codec ID : 55
Codec ID/Hint : MP3
Duration : 51mn 46s
Bit rate mode : Constant
Bit rate : 128 Kbps
Channel(s) : 2 channels
Sampling rate : 48.0 KHz
Compression mode : Lossy
Stream size : 47.4 MiB (9%)
Alignment : Aligned on interleaves
Interleave, duration : 40 ms (1.00 video frame)
Interleave, preload duratio : 504 ms
Writing library : LAME3.99r
Encoding settings : -m s -V 4 -q 0 -lowpass 17 -b 128





Релиз от:




реклама партнёра


Вернуться к началу
 Профиль Отправить личное сообщение  
 
   Похожие торренты   Автор   Торрент   Размер 
В этой теме нет новых непрочитанных сообщений. Шакал [01 из 08] (Детектив, 2016) WEB-DLRip-AVC от ExKinoRay

marya111

0 | 0

2.19 ГБ

В этой теме нет новых непрочитанных сообщений. Шакал [01 из 08] (Детектив, 2016) WEB-DLRip-AVC от ExKinoRay

marya111

0 | 0

5.79 ГБ

В этой теме нет новых непрочитанных сообщений. Гражданин Никто [01 из 20] (Детектив, 2016) HDTVRip от Files-x

marya111

0 | 0

1.76 ГБ

В этой теме нет новых непрочитанных сообщений. Гражданин Никто [01 из 20] (Детектив, 2016) HDTVRip от Files-x

marya111

0 | 0

4.69 ГБ

В этой теме нет новых непрочитанных сообщений. Гражданин Никто [01 из 20] (Детектив, 2016) HDTVRip от Files-x

marya111

0 | 0

3.51 ГБ

В этой теме нет новых непрочитанных сообщений. Казаки [01-04 из 16] (Детектив, приключения, 2016) HDTVRip 720p от MediaClub

marya111

40 | 7

4.57 ГБ

В этой теме нет новых непрочитанных сообщений. Научи меня жить [01-02 из 12] (Психологический детектив, 2016) HDTVRip от GeneralFilm

marya111

893 | 312

2.8 ГБ


Начать новую тему Ответить на тему  [ 1 сообщение ] 




Для Мосгорсуда, Роскомнадзора и рекламодателей:: mosgorsud-torrent[собачка]yandex.ru