Торрент файл
скачать торрент магнет ссылка Добавлен: 11 окт 2016, 21:43
Размер: 349.66 МБ
Сидеров: 13
Личеров: 0
Статус: (salma3)
Автор

СообщениеДобавлено: 11 окт 2016, 21:43 

Не в сети
Дата регистрации:
28 сен 2016, 18:10
Спасибо: 62 / 0
Сообщения: 1040
Год выхода: 2016
Жанр: Ситком, комедия, ремейк
Режиссёр: Роман Фокин

В ролях: Джемал Тетруашвили, Александр Макогон, Дмитрий Миллер, Ольга Медынич, Оскар Кучера, Антонина Комиссарова

О фильме: Многие телезрители уже успели соскучиться по любимым киногероям Светофора. Поэтому спешим вас обрадовать - все главные персонажи Сева, Паша и Эдик вновь будут удивлять безумными приключениями, которые относятся к разряду "нарочно не придумаешь". Это своего рода продолжение истории Светофора с теми же героями, но новыми событиями. Нашим "парням" - Эдику, Паше и Севе кажется, что все "экстремальное" осталось в прошлом, но они глубоко ошибаются. Пока все они заняты своей жизнью, которая протекает в более спокойной и размеренной обстановке. Паша упорно строит карьеру на ТВ, Сева вновь окунулся в семейные дела, а Эдик достиг желаемого и обзавелся своей студией. Спокойствию и миру приходит конец когда неожиданно появляется их давно преданный забвению друг Роман. Вернувшийся из Штатов Роман буквально фонтанирует новыми идеями и красочными перспективами. Впереди у него "великие" планы, в осуществлении которых несомненно требуется участие нашей троицы мужиков.



Выпущено: Россия, СТС, Yellow, Black & White
Продолжительность: ~ 00:24:00 / Серия
Перевод: Не требуется

Файл
Качество: WEB-DLRip
Видео: XviD, 704x400 (16:9), ~ 1800 Кбит/с, 25 кадр/с, 0.263 bit/pixel
Аудио: Русский, MP3, 48000 Гц, 128 Кбит/с, 2 канала (Стерео)

General
Complete name : F:DownloadsSvetofor.s09.2016.WEB-DLRip.by.ivandubskojSvetofor.s09.e01.WEB-DLRip.avi
Format : AVI
Format/Info : Audio Video Interleave
File size : 350 MiB
Duration : 25mn 31s
Overall bit rate : 1 916 Kbps
Writing application : VirtualDubMod 1.5.10.3 | www.virtualdub-fr.org || (build 2550/release)
Writing library : VirtualDubMod build 2550/release
Video
ID : 0
Format : MPEG-4 Visual
Format profile : Advanced Simple@L5
Format settings, BVOP : 1
Format settings, QPel : No
Format settings, GMC : No warppoints
Format settings, Matrix : Custom
Codec ID : XVID
Codec ID/Hint : XviD
Duration : 25mn 31s
Bit rate : 1 778 Kbps
Width : 704 pixels
Height : 400 pixels
Display aspect ratio : 16:9
Frame rate : 25.000 fps
Color space : YUV
Chroma subsampling : 4:2:0
Bit depth : 8 bits
Scan type : Progressive
Compression mode : Lossy
Bits/(Pixel*Frame) : 0.253
Stream size : 325 MiB (93%)
Writing library : XviD 73
Audio
ID : 1
Format : MPEG Audio
Format version : Version 1
Format profile : Layer 3
Codec ID : 55
Codec ID/Hint : MP3
Duration : 25mn 31s
Bit rate mode : Constant
Bit rate : 128 Kbps
Channel(s) : 2 channels
Sampling rate : 48.0 KHz
Compression mode : Lossy
Stream size : 23.4 MiB (7%)
Alignment : Aligned on interleaves
Interleave, duration : 40 ms (1.00 video frame)
Interleave, preload duration : 504 ms
Writing library : LAME3.99r
Encoding settings : -m s -V 4 -q 0 -lowpass 17 -b 128




Автор рипа - ivandubskoj




реклама партнёра


Вернуться к началу
 Профиль Отправить личное сообщение  
 
   Похожие торренты   Автор   Торрент   Размер 
В этой теме нет новых непрочитанных сообщений. Светофор [07x01-20 из 20] [Ситком, комедия, ремейк, 2014] WEB-DLRip

Dracon

289 | 89

6.45 ГБ

В этой теме нет новых непрочитанных сообщений. Теория Большого Взрыва / The Big Bang Theory [09x01-11 из 24] (Марк Сендроуски, Питер Чакос, Энтони Джозеф Рич) [2015, Ситком, комедия, HDTVRip 720p | Кураж-Бамбей]

marya111

8 | 10

5.03 ГБ

В этой теме нет новых непрочитанных сообщений. Теория Большого Взрыва / The Big Bang Theory [09x01-15 из 24] (Марк Сендроуски, Питер Чакос, Энтони Джозеф Рич) [2015, Ситком, комедия, HDTVRip 720p | Кураж-Бамбей]

Dracon

72 | 308

7.08 ГБ

В этой теме нет новых непрочитанных сообщений. Светофор [07х01-20 из 20] [Ситком, 2014] WEB-DL 720p

Dracon

123 | 42

9.16 ГБ

В этой теме нет новых непрочитанных сообщений. Светофор [Сезон 7, серия 1-20 из 20] [Ситком, 2014] SATRip

Dracon

1 | 3

6.35 ГБ

В этой теме нет новых непрочитанных сообщений. Теория большого взрыва / The Big Bang Theory [S01-09] [комедия, ситком, 2007-2016] BDRip, WEB-DLRip, Avo [Кураж-Бамбей]

marya111

0 | 0

48.35 ГБ

В этой теме нет новых непрочитанных сообщений. Бесстыжие / Shameless (US) [07x01-08 из 12] ( Драма, комедия, ремейк, 2016) HDTVRip | IdeaFilm

marya111

43 | 140

5.78 ГБ


Начать новую тему Ответить на тему  [ 1 сообщение ] 




Для Мосгорсуда, Роскомнадзора и рекламодателей:: mosgorsud-torrent[собачка]yandex.ru