Торрент файл
скачать торрент магнет ссылка Добавлен: 28 сен 2016, 12:03
Размер: 16.87 ГБ
Сидеров: 43
Личеров: 21
Статус: (salma3)
Автор

СообщениеДобавлено: 28 сен 2016, 12:03 

Не в сети
Супермодератор
Аватара пользователя
Дата регистрации:
15 фев 2012, 16:44
Возраст: 27
Спасибо: 5121 / 2089
Сообщения: 17304
Страна: США
Производство: 20th Century Fox Television, 21 Laps Entertainment, Double Wide Productions, Lost Marbles Productions
Год выпуска: 2011-2012
Сезон: 1
Жанр: комедия
Продолжительность: 24х ~00:22:00
Режиссеры: Джон Пасквин, Виктор Гонзалез, Тед Уасс
Авторы сценария: Джек Бёрдитт, Джон Хэллер, Ричард Брэндон Манус

В ролях: Тим Аллен, Нэнси Трэвис, Молли Эфраим, Кейтлин Дивер, Гектор Элизондо, Кристоф Сандерс, Аманда Фуллер, Флинн Моррисон

Описание: Сегодняшний мир принадлежит женщинам, а этот мужчина задался целью вернуть остальным мужчинам достойное место в обществе.
Мужчины создавали цивилизации, изобрели локомотив и спортивный канал ESPN, но им приходится выяснить, что мир им больше не принадлежит. Быть мужественнее чем Майк Бакстер невозможно. Он маркетинговый директор легендарного спортивного магазина, обожает приключения во время командировок, и, конечно же, водит пикап. Хотя на работе Майк круче всех, дома он под каблуком у женщин: у своей жены Ванессы, и у трёх дочерей — 22-летней Кристин, 17-летней Мэнди и 14-летней Ив...



Перевод: Профессиональный (полное дублирование) | Paramount Comedy
Субтитры: нет

Качество: WEB-DLRip 720p
Формат: МКV
Видео кодек: AVC
Аудио кодек: АС3
Видео: 1280x720 (16:9), 25.000/23.976 fps, MPEG-4 AVC ~4 000 kbps avg
Аудио №1: 48.0 kHz, AC3 Dolby Digital, 2/0 (L,R) ch, ~192 kbps | RUS / Paramount Comedy
Аудио №2: 48.0 kHz, AC3 Dolby Digital, 3/2 (L,C,R,l,r) + LFE ch, ~384 kbps | ENG
Дата премьеры (мир): 11 октября 2011
Релиз от: TaLi4
General
Unique ID : 171868098845497536207521036833649926766 (0x814C97808ABEF5E589C4CD6FAA75226E)
Complete name : Last.Man.Standing.S01E01.Pilot.720p.WEB-DL.Paramount.Comedy.mkv
Format : Matroska
Format version : Version 2
File size : 722 MiB
Duration : 20mn 45s
Overall bit rate : 4 866 Kbps
Encoded date : UTC 2013-05-02 11:19:09
Writing application : mkvmerge v5.5.0 ('Healer') built on Apr 24 2012 23:47:03
Writing library : libebml v1.2.3 + libmatroska v1.3.0
Video
ID : 1
Format : AVC
Format/Info : Advanced Video Codec
Format profile : High@L3.1
Format settings, CABAC : No
Format settings, ReFrames : 2 frames
Codec ID : V_MPEG4/ISO/AVC
Duration : 20mn 45s
Bit rate : 4 193 Kbps
Width : 1 280 pixels
Height : 720 pixels
Display aspect ratio : 16:9
Frame rate mode : Constant
Frame rate : 25.000 fps
Color space : YUV
Chroma subsampling : 4:2:0
Bit depth : 8 bits
Scan type : Progressive
Bits/(Pixel*Frame) : 0.182
Stream size : 623 MiB (86%)
Title : Season 1, Episode 1: Pilot
Language : English
Default : Yes
Forced : No
Color primaries : BT.709
Transfer characteristics : BT.709
Matrix coefficients : BT.709
Audio #1
ID : 2
Format : AC-3
Format/Info : Audio Coding 3
Mode extension : CM (complete main)
Format settings, Endianness : Big
Codec ID : A_AC3
Duration : 20mn 45s
Bit rate mode : Constant
Bit rate : 192 Kbps
Channel(s) : 2 channels
Channel positions : Front: L R
Sampling rate : 48.0 KHz
Bit depth : 16 bits
Compression mode : Lossy
Stream size : 28.5 MiB (4%)
Language : Russian
Default : Yes
Forced : No
Audio #2
ID : 3
Format : AC-3
Format/Info : Audio Coding 3
Mode extension : CM (complete main)
Format settings, Endianness : Big
Codec ID : A_AC3
Duration : 20mn 45s
Bit rate mode : Constant
Bit rate : 384 Kbps
Channel(s) : 6 channels
Channel positions : Front: L C R, Side: L R, LFE
Sampling rate : 48.0 KHz
Bit depth : 16 bits
Compression mode : Lossy
Delay relative to video : 6ms
Stream size : 57.0 MiB (8%)
Title : AC3 5.1 @ 384 kbps
Language : English
Default : No
Forced : No
General
Unique ID : 232148620256627589016890125006224731173 (0xAEA632AB8B116AF686EBB9FA2117AC25)
Complete name : Last.Man.Standing.S01E11.The.Passion.of.the.Mandy.720p.WEB-DL.Paramount.Comedy.mkv
Format : Matroska
Format version : Version 2
File size : 716 MiB
Duration : 21mn 40s
Overall bit rate : 4 613 Kbps
Encoded date : UTC 2013-04-30 16:58:24
Writing application : mkvmerge v5.5.0 ('Healer') built on Apr 24 2012 23:47:03
Writing library : libebml v1.2.3 + libmatroska v1.3.0
Video
ID : 1
Format : AVC
Format/Info : Advanced Video Codec
Format profile : High@L3.1
Format settings, CABAC : No
Format settings, ReFrames : 2 frames
Codec ID : V_MPEG4/ISO/AVC
Duration : 21mn 41s
Bit rate : 3 946 Kbps
Width : 1 280 pixels
Height : 720 pixels
Display aspect ratio : 16:9
Frame rate mode : Constant
Frame rate : 23.976 fps
Color space : YUV
Chroma subsampling : 4:2:0
Bit depth : 8 bits
Scan type : Progressive
Bits/(Pixel*Frame) : 0.179
Stream size : 612 MiB (86%)
Language : English
Default : Yes
Forced : No
Color primaries : BT.709
Transfer characteristics : BT.709
Matrix coefficients : BT.709
Audio #1
ID : 2
Format : AC-3
Format/Info : Audio Coding 3
Mode extension : CM (complete main)
Format settings, Endianness : Big
Codec ID : A_AC3
Duration : 21mn 40s
Bit rate mode : Constant
Bit rate : 192 Kbps
Channel(s) : 2 channels
Channel positions : Front: L R
Sampling rate : 48.0 KHz
Bit depth : 16 bits
Compression mode : Lossy
Stream size : 29.8 MiB (4%)
Language : Russian
Default : Yes
Forced : No
Audio #2
ID : 3
Format : AC-3
Format/Info : Audio Coding 3
Mode extension : CM (complete main)
Format settings, Endianness : Big
Codec ID : A_AC3
Duration : 21mn 40s
Bit rate mode : Constant
Bit rate : 384 Kbps
Channel(s) : 6 channels
Channel positions : Front: L C R, Side: L R, LFE
Sampling rate : 48.0 KHz
Bit depth : 16 bits
Compression mode : Lossy
Stream size : 59.6 MiB (8%)
Title : English
Language : English
Default : No
Forced : No


_________________



реклама партнёра


Вернуться к началу
 Профиль Отправить личное сообщение  
 
   Похожие торренты   Автор   Торрент   Размер 
В этой теме нет новых непрочитанных сообщений. Последний настоящий мужчина / Last Man Standing [S05] [комедия, 2015-2016] WEB-DLRip 720p, Dub [Paramount Comedy]

salma3

46 | 33

15.29 ГБ

В этой теме нет новых непрочитанных сообщений. Последний настоящий мужчина / Last Man Standing [S04] [комедия, 2013-2014] WEB-DLRip 720p, Dub [Paramount Comedy]

salma3

14 | 7

15.48 ГБ

В этой теме нет новых непрочитанных сообщений. Последний настоящий мужчина / Last Man Standing [S02] [комедия, 2013-2014] WEB-DLRip 720p, Dub [Paramount Comedy]

salma3

18 | 17

12.68 ГБ

В этой теме нет новых непрочитанных сообщений. Последний настоящий мужчина / Last Man Standing [S03] [комедия, 2013-2014] WEB-DLRip 720p, Dub [Paramount Comedy]

salma3

17 | 16

15.53 ГБ

В этой теме нет новых непрочитанных сообщений. Последний настоящий мужчина / Last Man Standing [S05] [комедия, 2015-2016] WEB-DLRip, Dub [Paramount Comedy]

salma3

45 | 47

5.05 ГБ

В этой теме нет новых непрочитанных сообщений. Последний настоящий мужчина / Last Man Standing / 3 сезон 1-22 серии из 22 [Комедия, 2013] WEB-DLRip, dub [Paramount Comedy]

salma3

25 | 12

5.06 ГБ

В этой теме нет новых непрочитанных сообщений. Последний настоящий мужчина / Last Man Standing [06х01-08 из 22] ( Комедия, 2016) HDTV 720p | Jetvis Studio

marya111

29 | 28

4.24 ГБ


Начать новую тему Ответить на тему  [ 1 сообщение ] 




Для Мосгорсуда, Роскомнадзора и рекламодателей:: mosgorsud-torrent[собачка]yandex.ru