Торрент файл
скачать торрент магнет ссылка Добавлен: 24 сен 2016, 20:21
Размер: 17.33 ГБ
Сидеров: 102
Личеров: 115
Статус: (salma3)
Автор

СообщениеДобавлено: 24 сен 2016, 20:21 

Не в сети
Супермодератор
Аватара пользователя
Дата регистрации:
15 фев 2012, 16:44
Возраст: 27
Спасибо: 5139 / 2089
Сообщения: 17411
Перевод: Не требуется, cубтитры: отсутствуют
Формат: SATRip, AVI, XviD, MP3
Страна: Россия
Режиссер: Владимир Койфман, Наталия Бучнева, Илья Шеховцов
Жанр: детектив, криминал
Всего серий: 32
Продолжительность: 32 x ~ 00:40:00
Год выпуска: 2016

В ролях: Максим Меркулов (II), Ирина Шеянова, Дмитрий Паламарчук, Алексей Митин, Александр Саюталин, Оксана Базилевич, Игорь Головин, Сергей Кудрявцев, Александр Большаков, Вероника Норина, Глафира Козулина, Сергей Колос, Наталья Круглова, Игорь Николаев (II), Александр Демич (II), Олег Жилин, Марина Доможирова, Инна Горбикова, Наталья Мартынова, Марк Гаврилов

Описание:
Команда молодых оперативников убойного отдела ГУВД — капитаны Филиппов, Лернер, Ильинский и старший лейтенант Стрельникова расследуют самые громкие преступления. Они молоды и амбициозны, и они сами выбрали такую работу. Каждая серия — это новое дело, новый вызов и новая захватывающая история. Зрители проживут с героями сериала один год. Год, за который Филиппов, Лернер, Ильинский и Стрельникова превратятся из молодых оперативников в опытных профессионалов. Год, который многое изменит в их жизни, избавит от романтических иллюзий, заставит по-новому взглянуть на работу, которую они выбрали. Через год они станут другими людьми, но неизменным останется одно — их дружба и девиз мушкетеров: один за всех и все за одного.



Видео: 720x400 (1.80:1), 25 fps, XviD MPEG-4 ~1800 kbps avg, 0.250 bit/pixel
Аудио: 48 kHz, MPEG Layer 3, 2 ch, ~128.00 kbps avg

Общее
Полное имя : C:\Users\Downloads\Takaya.rabota.3.01.SATRip.avi
Формат : AVI
Формат/Информация : Audio Video Interleave
Размер файла : 561 Мбайт
Продолжительность : 40 м.
Общий поток : 1942 Кбит/сек

Видео
Идентификатор : 0
Формат : MPEG-4 Visual
Профиль формата : Advanced Simple@L5
Параметр BVOP формата : 2
Параметр QPel формата : Нет
Параметр GMC формата : Без точки перехода
Параметр матрицы формата : Default (H.263)
Идентификатор кодека : XVID
Идентификатор кодека/Подсказка : XviD
Продолжительность : 40 м.
Битрейт : 1800 Кбит/сек
Ширина : 720 пикселей
Высота : 400 пикселей
Соотношение сторон : 16:9
Частота кадров : 25,000 кадров/сек
Цветовое пространство : YUV
Субдискретизация насыщенности : 4:2:0
Битовая глубина : 8 бит
Тип развёртки : Прогрессивная
Метод сжатия : С потерями
Бит/(Пиксели*Кадры) : 0.250
Размер потока : 520 Мбайт (93%)
Библиотека кодирования : XviD 1.2.1 (UTC 2008-12-04)

Аудио
Идентификатор : 1
Формат : MPEG Audio
Версия формата : Version 1
Профиль формата : Layer 3
Режим : Joint stereo
Расширение режима : MS Stereo
Идентификатор кодека : 55
Идентификатор кодека/Подсказка : MP3
Продолжительность : 40 м.
Вид битрейта : Постоянный
Битрейт : 128 Кбит/сек
Каналы : 2 канала
Частота : 48,0 КГц
Метод сжатия : С потерями
Размер потока : 37,0 Мбайт (7%)
Выравнивание : Соединение по промежуткам
Продолжительность промежутка : 24 мс. (0,60 видеокадр)
Библиотека кодирования : LAME3.99r
Настройки программы : -m j -V 4 -q 9 -lowpass 17 -b 128



_________________



реклама партнёра


Вернуться к началу
 Профиль Отправить личное сообщение  
 
   Похожие торренты   Автор   Торрент   Размер 
В этой теме нет новых непрочитанных сообщений. Такая работа (2 сезон: 1-31 серии из 31) [детектив, криминал, 2016] WEBRip

salma3

253 | 145

15.27 ГБ

В этой теме нет новых непрочитанных сообщений. Такая работа [03x01-41 из 44] [детектив, криминал, 2016] SATRip-AVC

marya111

57 | 188

22.63 ГБ

В этой теме нет новых непрочитанных сообщений. Такая работа [03x01-49 из 52] [детектив, криминал, 2016] SATRip-AVC

marya111

6 | 28

27.02 ГБ

В этой теме нет новых непрочитанных сообщений. Такая работа [03x01-61 из 64] ( детектив, криминал, 2016) SATRip-AVC от Korsar

marya111

20 | 78

33.57 ГБ

В этой теме нет новых непрочитанных сообщений. Такая работа [03x01-62 из 64] (детектив, криминал, 2016) SATRip-AVC от Korsar

marya111

9 | 24

34.1 ГБ

В этой теме нет новых непрочитанных сообщений. Такая работа [03x01-53 из 55] (детектив, криминал, 2016) SATRip-AVC от Korsar

marya111

0 | 0

29.22 ГБ

В этой теме нет новых непрочитанных сообщений. Такая работа [01-18 из 80] (Владимир Койфман, Наталия Бучнева, Илья Шеховцов) [2014, Детектив, криминал, WEB-DLRip]

Nickolas3435

3 | 4

8.78 ГБ


Начать новую тему Ответить на тему  [ 1 сообщение ] 




Для Мосгорсуда, Роскомнадзора и рекламодателей:: mosgorsud-torrent[собачка]yandex.ru