Торрент файл
скачать торрент магнет ссылка Добавлен: 27 май 2016, 20:38
Размер: 16.35 ГБ
Сидеров: 72
Личеров: 33
Статус: (salma3)
Автор

СообщениеДобавлено: 27 май 2016, 20:38 

Не в сети
Супермодератор
Аватара пользователя
Дата регистрации:
15 фев 2012, 16:44
Возраст: 27
Спасибо: 5132 / 2089
Сообщения: 17377
Перевод: Профессиональный (многоголосый, закадровый) [LostFilm]
Cубтитры: отсутствуют
Формат: WEB-DLRip (AVC), MKV, H.264, AC3
Страна: США
Режиссер: Марк Пеллингтон, Стив Шилл, Маркос Сига
Жанр: триллер, драма, детектив
Всего серий: 23
Продолжительность: 23 х ~ 00:43:00
Год выпуска: 2015-2016

В ролях: Джейми Александер, Салливан Степлтон, Одри Эспарза, Роб Браун, Эшли Джонсон, Аквели Роач, Марианн Жан-Батист, Келли Аарон, Майкл Гэстон, Франсуа Арно

Описание: На Таймс-сквер в Нью-Йорке полицейские обнаруживают странную сумку с надписью «Вызывайте ФБР».
Район немедленно оцепляют, и стражи порядка начинают активно готовиться к предотвращению теракта. Однако вместо бомбы внутри сумки они находят обнаженную девушку, которая ничего не помнит о своем прошлом, а все ее тело покрыто татуировками. Одна из них - это имя агента ФБР Курта Уэллера. Веллера срочно вызывают для расследования этого нетипичного дела, и вскоре выясняется, что на теле Джейн Доу набиты и другие послания. Оказалось, что все татуировки представляют собой ключи к разгадке многих страшных преступлений (уже произошедших или только планирующихся).
Эти загадочные рисунки не только помогут ФБР распутывать клубок грязных тайн самых отъявленных преступников Америки, они и самой Джейн Доу расскажут о секретах ее покрытого туманом прошлого...




Видео: 1024х576 (16:9), 23,976 fps, AVC (х264), , ~2000 Kbps avg, 0.141 bit/pixel
Аудио: 48.0 KHz, AC3 Dolby Digital, 6 channels (Front: L C R, Side: L R, LFE), ~384 kbps avg

Доп. информация: звук перевода и оригинальная дорожка Dolby Digital 5.1
Полноэкранное изображение (16:9) без "черных" полос. Рип с WEB-DL 1080р. Автор рипа: Д.И.С. Релиз группы:
    Общее
    Уникальный идентификатор : 120530277490391066999055002096711852326 (0x5AAD497CEBF816062CE2186367E56126)
    Полное имя : D:\Video\...\slepoe_pyatno_s01e01_lostfilm_rip_DIS_[tfile.me].mkv
    Формат : Matroska
    Версия формата : Version 2
    Размер файла : 739 Мбайт
    Продолжительность : 43 м.
    Общий поток : 2387 Кбит/сек
    Дата кодирования : UTC 2015-10-12 19:05:18 / UTC 2015-10-12 19:05:18
    Программа кодирования : Lavf54.63.104
    Библиотека кодирования : Lavf54.63.104 / Lavf54.63.104

    Видео
    Идентификатор : 1
    Формат : AVC
    Формат/Информация : Advanced Video Codec
    Профиль формата :
    Параметр CABAC формата : Да
    Параметр ReFrames формата : 2 кадра
    Идентификатор кодека : V_MPEG4/ISO/AVC
    Продолжительность : 43 м.
    Битрейт : 2000 Кбит/сек
    Ширина : 1024 пикселя
    Высота : 576 пикселей
    Соотношение сторон : 16:9
    Режим частоты кадров : Постоянный
    Частота кадров : 23,976 (24000/1001) кадра/сек
    Цветовое пространство : YUV
    Субдискретизация насыщенности : 4:2:0
    Битовая глубина : 8 бит
    Тип развёртки : Прогрессивная
    Бит/(Пиксели*Кадры) : 0.141
    Размер потока : 605 Мбайт (82%)
    Библиотека кодирования : x264 core 129
    Настройки программы : cabac=1 / ref=2 / deblock=1:0:0 / analyse=0x3:0x113 / me=hex / subme=6 / psy=1 / psy_rd=1.00:0.00 / mixed_ref=1 / me_range=16 / chroma_me=1 / trellis=0 / 8x8dct=1 / cqm=0 / deadzone=21,11 / fast_pskip=1 / chroma_qp_offset=-2 / threads=8 / lookahead_threads=1 / sliced_threads=0 / nr=0 / decimate=1 / interlaced=0 / bluray_compat=0 / constrained_intra=0 / bframes=0 / weightp=2 / keyint=250 / keyint_min=25 / scenecut=40 / intra_refresh=0 / rc_lookahead=40 / rc=2pass / mbtree=1 / bitrate=2000 / ratetol=1.0 / qcomp=0.60 / qpmin=10 / qpmax=51 / qpstep=4 / cplxblur=20.0 / qblur=0.5 / ip_ratio=1.41 / aq=1:1.00
    Default : Да
    Forced : Нет

    Аудио
    Идентификатор : 2
    Формат : AC-3
    Формат/Информация : Audio Coding 3
    Расширение режима : CM (complete main)
    Параметр Endianness формата : Big
    Идентификатор кодека : A_AC3
    Продолжительность : 43 м.
    Вид битрейта : Постоянный
    Битрейт : 384 Кбит/сек
    Каналы : 6 каналов
    Расположение каналов : Front: L C R, Side: L R, LFE
    Частота : 48,0 КГц
    Частота кадров : 31,250 кадров/сек (1536 spf)
    Битовая глубина : 16 бит
    Метод сжатия : С потерями
    Размер потока : 119 Мбайт (16%)
    Default : Да
    Forced : Нет




_________________



реклама партнёра


Вернуться к началу
 Профиль Отправить личное сообщение  
 
   Похожие торренты   Автор   Торрент   Размер 
В этой теме нет новых непрочитанных сообщений. Слепая зона / Слепое пятно / Blindspot / 1 сезон 1-20 серии из 22 [триллер, драма, детектив, 2015] WEB-DLRip, Mvo [NewStudio]

salma3

13 | 39

7.92 ГБ

В этой теме нет новых непрочитанных сообщений. Слепая зона / Слепое пятно / Blindspot / 1 сезон 1-20 серии из 22 [триллер, драма, детектив, 2015] WEB-DLRip, Mvo [NewStudio]

salma3

43 | 61

10.55 ГБ

В этой теме нет новых непрочитанных сообщений. Слепое пятно (Слепая зона) / Blindspot [02x01-07 из 23] (Драма, детектив, 2016) WEB-DLRip 720p | Jetvis Studio

marya111

0 | 0

6.97 ГБ

В этой теме нет новых непрочитанных сообщений. Слепое пятно / Blindspot / 2 сезон 1-9 серии из 22 [Драма, детектив, 2016] WEB-DLRip, Mvo [LostFilm]

salma3

66 | 192

4.84 ГБ

В этой теме нет новых непрочитанных сообщений. Слепое пятно / Blindspot [01х01-21 из 23] (Марк Пеллингтон) [2015, Драма, детектив, WEB-DLRip | LostFilm]

Dracon

13 | 15

8.22 ГБ

В этой теме нет новых непрочитанных сообщений. Слепое пятно / Blindspot [01х01-21 из 23] (Марк Пеллингтон) [2015, Драма, детектив, WEB-DLRip | LostFilm]

Dracon

48 | 47

11.22 ГБ

В этой теме нет новых непрочитанных сообщений. Слепое пятно / Blindspot [01х01-08 из 22] (Марк Пеллингтон) [2015, Драма, детектив, WEB-DLRip | LostFilm]

Dracon

139 | 210

4.59 ГБ


Начать новую тему Ответить на тему  [ 1 сообщение ] 




Для Мосгорсуда, Роскомнадзора и рекламодателей:: mosgorsud-torrent[собачка]yandex.ru