Торрент файл
скачать торрент магнет ссылка Добавлен: 27 май 2016, 20:07
Размер: 2.43 ГБ
Сидеров: 134
Личеров: 38
Статус: (salma3)
Автор

СообщениеДобавлено: 27 май 2016, 20:07 

Не в сети
Супермодератор
Аватара пользователя
Дата регистрации:
15 фев 2012, 16:44
Возраст: 27
Спасибо: 5140 / 2090
Сообщения: 17470
Страна: Австралия
Производство: Emu Creek Pictures, Screentime
Год выпуска: 2016
Жанр: ужасы, триллер, драма
Сезон: 1
Серии: 1-6 (из 6)
Продолжительность: 6х ~00:45:00
Режиссеры: Грег МакЛин, Тони Тилс
Авторы сценария: Питер Гоулер, Грег МакЛин, Фелисити Паккард

В ролях: Люси Фрай, Джон Джэррэт, Дастин Клер, Эдди Бару, Алисия Гардинер, Энди МакФи, Ричард Коуторн, Джэйк Райан

Описание: Ева могла стать очередной жертвой сумасшедшего серийного убийцы Мика Тейлора. Но ей удается избежать смерти от рук маньяка. И теперь она одержима одной только местью...



Перевод: Любительский (одноголосый, закадровый) | Project_Web_Mania
Субтитры: нет

Качество: WEBRip 720р
Формат: МКV
Видео кодек: AVC
Аудио кодек: АС3
Видео: 1280x720 (16:9), 24.000 fps, MPEG-4 AVC ~1 600 kbps avg
Аудио: 48.0 kHz, AC3 Dolby Digital, 2/0 (L,R) ch, ~192 kbps
Дата премьеры (мир): 12 мая 2016

General
Unique ID : 209887676352398326278616886783739954183 (0x9DE6E565CB1C7805A70FC7CA7FCC0407)
Format : Matroska
Format version : Version 2
Overall bit rate : 1 629 Kbps
Encoded date : UTC 2016-05-25 18:43:11
Writing application : mkvmerge v5.0.1 ('Es ist Sommer') built on Oct 9 2011 11:55:43
Writing library : libebml v1.2.2 + libmatroska v1.3.0
Video
ID : 1
Format : AVC
Format/Info : Advanced Video Codec
Format profile : Main@L4
Format settings, CABAC : Yes
Format settings, ReFrames : 4 frames
Codec ID : V_MPEG4/ISO/AVC
Bit rate : 1 524 Kbps
Width : 1 280 pixels
Height : 720 pixels
Display aspect ratio : 16:9
Frame rate mode : Constant
Frame rate : 24.000 fps
Color space : YUV
Chroma subsampling : 4:2:0
Bit depth : 8 bits
Scan type : Progressive
Bits/(Pixel*Frame) : 0.059
Stream size : 18.9 MiB (85%)
Default : Yes
Forced : No
Color range : Limited
Color primaries : BT.709
Transfer characteristics : BT.709
Matrix coefficients : BT.709
Audio
ID : 2
Format : AC-3
Format/Info : Audio Coding 3
Mode extension : CM (complete main)
Format settings, Endianness : Big
Codec ID : A_AC3
Bit rate mode : Constant
Bit rate : 192 Kbps
Channel(s) : 2 channels
Channel positions : Front: L R
Sampling rate : 48.0 KHz
Compression mode : Lossy
Stream size : 2.79 MiB (13%)
Title : VO_Project_Web_Mania
Language : Russian
Default : Yes
Forced : No



_________________



реклама партнёра


Вернуться к началу
 Профиль Отправить личное сообщение  
 
   Похожие торренты   Автор   Торрент   Размер 
В этой теме нет новых непрочитанных сообщений. Волчья яма / Wolf Creek [S01] [ужасы, триллер, драма, 2016] WEBRip, Avo

salma3

245 | 73

3.37 ГБ

В этой теме нет новых непрочитанных сообщений. Волчья яма 2 / Wolf Creek 2 [ужасы, триллер, 2013] BDRip-AVC, Dvo

salma3

21 | 2

2.18 ГБ

В этой теме нет новых непрочитанных сообщений. Волчья яма 2 / Wolf Creek 2 [ужасы, триллер, 2013] WEB-DLRip, dvo

Dracon

1145 | 23

1.47 ГБ

В этой теме нет новых непрочитанных сообщений. Волчья яма 2 / Wolf Creek 2 [ужасы, триллер, 2013] HDRip, dvo

Dracon

152 | 3

1.37 ГБ

В этой теме нет новых непрочитанных сообщений. Волчья яма 2 / Wolf Creek 2 [ужасы, триллер, 2013] WEB-DL 720p, dvo

Dracon

76 | 6

3.29 ГБ

В этой теме нет новых непрочитанных сообщений. Волчья яма 2 / Wolf Creek 2 [ужасы, триллер, 2013] BDRip 720p, dvo

Dracon

31 | 3

4.51 ГБ

В этой теме нет новых непрочитанных сообщений. Волчья яма / Wolf creek (2005) BDRip 1080p, Mvo+Dvo+Avo+Sub

salma3

60 | 11

9.68 ГБ


Начать новую тему Ответить на тему  [ 1 сообщение ] 




Для Мосгорсуда, Роскомнадзора и рекламодателей:: mosgorsud-torrent[собачка]yandex.ru