Торрент файл
скачать торрент магнет ссылка Добавлен: 27 май 2016, 20:05
Размер: 3.37 ГБ
Сидеров: 245
Личеров: 73
Статус: (salma3)
Автор

СообщениеДобавлено: 27 май 2016, 20:05 

Не в сети
Супермодератор
Аватара пользователя
Дата регистрации:
15 фев 2012, 16:44
Возраст: 27
Спасибо: 5139 / 2089
Сообщения: 17425
Страна: Австралия
Производство: Emu Creek Pictures, Screentime
Год выпуска: 2016
Жанр: ужасы, триллер, драма
Сезон: 1
Серии: 1-6 (из 6)
Продолжительность: 6х ~00:45:00
Режиссеры: Грег МакЛин, Тони Тилс
Авторы сценария: Питер Гоулер, Грег МакЛин, Фелисити Паккард

В ролях: Люси Фрай, Джон Джэррэт, Дастин Клер, Эдди Бару, Алисия Гардинер, Энди МакФи, Ричард Коуторн, Джэйк Райан

Описание: Ева могла стать очередной жертвой сумасшедшего серийного убийцы Мика Тейлора. Но ей удается избежать смерти от рук маньяка. И теперь она одержима одной только местью...



Перевод: Любительский (одноголосый, закадровый) | Project_Web_Mania
Субтитры: нет

Качество: WEBRip
Формат: AVI
Видео кодек: XviD
Аудио кодек: АС3
Видео: 720x400 (16:9), 24.000 fps, XviD ~1 500 kbps avg
Аудио: 44.1 kHz, AC3 Dolby Digital, 2/0 (L,R) ch, ~192 kbps
Дата премьеры (мир): 12 мая 2016

General
Format : AVI
Format/Info : Audio Video Interleave
Overall bit rate : 2 799 Kbps
Writing application : Lavf57.25.100
Video
ID : 0
Format : MPEG-4 Visual
Format profile : Advanced Simple@L5
Format settings, BVOP : 2
Format settings, QPel : No
Format settings, GMC : No warppoints
Format settings, Matrix : Default (MPEG)
Codec ID : XVID
Codec ID/Hint : XviD
Bit rate : 1 470 Kbps
Width : 720 pixels
Height : 400 pixels
Display aspect ratio : 16:9
Frame rate : 24.000 fps
Color space : YUV
Chroma subsampling : 4:2:0
Bit depth : 8 bits
Scan type : Progressive
Compression mode : Lossy
Bits/(Pixel*Frame) : 0.405
Stream size : 20.5 MiB (93%)
Writing library : XviD 1.2.1 (UTC 2008-12-04)
Audio
ID : 1
Format : AC-3
Format/Info : Audio Coding 3
Mode extension : CM (complete main)
Format settings, Endianness : Big
Codec ID : 2000
Bit rate mode : Constant
Bit rate : 192 Kbps
Channel(s) : 2 channels
Channel positions : Front: L R
Sampling rate : 44.1 KHz
Bit depth : 16 bits
Compression mode : Lossy
Stream size : 1.40 MiB (6%)
Alignment : Split accross interleaves
Interleave, duration : 35 ms (0.84 video frame)



_________________



реклама партнёра


Вернуться к началу
 Профиль Отправить личное сообщение  
 
   Похожие торренты   Автор   Торрент   Размер 
В этой теме нет новых непрочитанных сообщений. Волчья яма / Wolf Creek [S01] [ужасы, триллер, драма, 2016] WEBRip 720р, Avo

salma3

134 | 38

2.43 ГБ

В этой теме нет новых непрочитанных сообщений. Волчья яма 2 / Wolf Creek 2 [ужасы, триллер, 2013] BDRip-AVC, Dvo

salma3

21 | 2

2.18 ГБ

В этой теме нет новых непрочитанных сообщений. Волчья яма 2 / Wolf Creek 2 [ужасы, триллер, 2013] WEB-DLRip, dvo

Dracon

1145 | 23

1.47 ГБ

В этой теме нет новых непрочитанных сообщений. Волчья яма 2 / Wolf Creek 2 [ужасы, триллер, 2013] WEB-DL 720p, dvo

Dracon

76 | 6

3.29 ГБ

В этой теме нет новых непрочитанных сообщений. Волчья яма 2 / Wolf Creek 2 [ужасы, триллер, 2013] HDRip, dvo

Dracon

152 | 3

1.37 ГБ

В этой теме нет новых непрочитанных сообщений. Волчья яма 2 / Wolf Creek 2 [ужасы, триллер, 2013] BDRip 720p, dvo

Dracon

31 | 3

4.51 ГБ

В этой теме нет новых непрочитанных сообщений. Волчья яма / Wolf creek (2005) BDRip 1080p, Mvo+Dvo+Avo+Sub

salma3

60 | 11

9.68 ГБ


СообщениеДобавлено: 02 июн 2016, 03:28 

Не в сети
Аватара пользователя
Дата регистрации:
16 мар 2014, 09:15
Спасибо: 0 / 32
Сообщения: 35
добавляйте украинский дубляж


Вернуться к началу
 Профиль Отправить личное сообщение  
 
Начать новую тему Ответить на тему  [ Сообщений: 2 ] 




Для Мосгорсуда, Роскомнадзора и рекламодателей:: mosgorsud-torrent[собачка]yandex.ru