Торрент файл
скачать торрент магнет ссылка Добавлен: 11 апр 2016, 20:09
Размер: 13.29 ГБ
Сидеров: 32
Личеров: 17
Статус: (salma3)
Автор

СообщениеДобавлено: 11 апр 2016, 20:09 

В сети
Супермодератор
Аватара пользователя
Дата регистрации:
15 фев 2012, 16:44
Возраст: 27
Спасибо: 5143 / 2090
Сообщения: 17495
Перевод: Профессиональный (многоголосый, закадровый) [NewStudio]
Cубтитры: отсутствуют
Формат: WEB-DLRip (AVC), MKV, H.264, AC3
Страна: США
Режиссер: Лен Уайзман
Жанр: фэнтези, триллер, драма, детектив, приключения
Всего серий: 18
Продолжительность: 18 x ~ 00:46:00
Год выпуска: 2015

В ролях: Том Мисон, Николь Бахари, Орландо Джонс, Катя Винтер, Меми Уэст, Кристофер МакКоннелл, Клэнси Браун

Описание: Бывает так, что после своей смерти вы просыпаетесь аж через 250 лет в далеком будущем, где мир находится в полной опасности. В нем происходят необъяснимые события и ваша роль - спасти человечество...
Речь идет о Сонной Лощине, небольшом городишке. Наш главный герой Икабод Крэйн восстает для того чтобы разобраться в тайне, которая была покрыта мраком еще с прошлых времен. Вместе с ним оживает и так называемый Всадник без головы, который начинает убивать жителей Лощины. Икабод не понаслышке знает о нем, ведь именно он в битве отрубил ему голову и данный убийца является одним из представителей Всадников Апокалипсиса. Наш герой чувствует себя очень неловко в современном мире, но вместе с Эбби Миллс, которая верит в существование сверхъестественных сил Икабод собирается бороться со злом.
Они составляют прекрасный дуэт - он имеет отличные знания давней истории Америки, она прекрасный психолог и оценщик потенциальной угрозы...


Рейтинг:


Видео: 1024х576 (16:9), 23,976 fps, AVC (х264), , ~1963 Kbps avg, 0.139 bit/pixel
Аудио: 48.0 kHz, AC3 Dolby Digital, 6 channels (Front: L C R, Side: L R, LFE), ~384 kbps avg

Доп. информация: звук перевода и оригинальная дорожка Dolby Digital 5.1
Полноэкранное изображение (16:9) без "черных" полос. Рип с WEB-DL 1080р. Автор рипа: Д.И.С. Релиз группы:
    Общее
    Уникальный идентификатор : 187241427111183135349641561804715124686 (0x8CDD631AF90B8C8C6923D26CF834E7CE)
    Полное имя : D:\Video\...\sonnaya_loshina_s03e01_[tfile.me]_rip_DIS.mkv
    Формат : Matroska
    Версия формата : Version 2
    Размер файла : 786 Мбайт
    Продолжительность : 45 м.
    Режим общего битрейта : Переменный
    Общий поток : 2394 Кбит/сек
    Дата кодирования : UTC 2015-10-03 11:20:02
    Программа кодирования : Lavf54.63.104
    Библиотека кодирования : Lavf54.63.104

    Видео
    Идентификатор : 1
    Формат : AVC
    Формат/Информация : Advanced Video Codec
    Профиль формата :
    Параметр CABAC формата : Да
    Параметр ReFrames формата : 1 кадр
    Параметр GOP формата : M=1, N=15
    Идентификатор кодека : V_MPEG4/ISO/AVC
    Продолжительность : 45 м.
    Вид битрейта : Переменный
    Битрейт : 1963 Кбит/сек
    Максимальный битрейт : 6000 Кбит/сек
    Ширина : 1024 пикселя
    Высота : 576 пикселей
    Соотношение сторон : 16:9
    Режим частоты кадров : Постоянный
    Частота кадров : 23,976 кадра/сек
    Цветовое пространство : YUV
    Субдискретизация насыщенности : 4:2:0
    Битовая глубина : 8 бит
    Тип развёртки : Прогрессивная
    Бит/(Пиксели*Кадры) : 0.139
    Размер потока : 645 Мбайт (82%)
    Default : Да
    Forced : Нет

    Аудио
    Идентификатор : 2
    Формат : AC-3
    Формат/Информация : Audio Coding 3
    Расширение режима : CM (complete main)
    Параметр Endianness формата : Big
    Идентификатор кодека : A_AC3
    Продолжительность : 45 м.
    Вид битрейта : Постоянный
    Битрейт : 384 Кбит/сек
    Каналы : 6 каналов
    Расположение каналов : Front: L C R, Side: L R, LFE
    Частота : 48,0 КГц
    Битовая глубина : 16 бит
    Метод сжатия : С потерями
    Размер потока : 126 Мбайт (16%)
    Default : Да
    Forced : Нет




_________________



реклама партнёра


Вернуться к началу
 Профиль Отправить личное сообщение  
 
   Похожие торренты   Автор   Торрент   Размер 
В этой теме нет новых непрочитанных сообщений. Сонная Лощина / Sleepy Hollow / 3 сезон 1-16 серии из 18 [фэнтези, триллер, драма, детектив, приключения, 2015] WEB-DLRip, Mvo [NewStudio]

salma3

20 | 62

8.44 ГБ

В этой теме нет новых непрочитанных сообщений. Сонная Лощина / Sleepy Hollow / 3 сезон 1-18 серии из 18 (Кен Олин, Эрнест Р. Дикерсон, Пол А. Эдвардс) [2015, фэнтези, триллер, драма, детектив, приключения, WEB-DLRip | LostFilm]

Dracon

191 | 152

8.93 ГБ

В этой теме нет новых непрочитанных сообщений. Сонная Лощина / Sleepy Hollow [S03] [фэнтези, триллер, драма, 2015-2016] WEB-DL 720p, Mvo [NewStudio]

salma3

15 | 30

26.45 ГБ

В этой теме нет новых непрочитанных сообщений. Сонная Лощина / Sleepy Hollow / 2 сезон 1-18 серии из 18 [Триллер, фэнтези, 2014] WEB-DLRip, Mvo [LostFilm]

salma3

155 | 59

8.07 ГБ

В этой теме нет новых непрочитанных сообщений. Сонная Лощина / Sleepy Hollow [03х01-07 из 18] (Кен Олин, Эрнест Р. Дикерсон, Пол А. Эдвардс) [2015, фэнтези, триллер, драма, детектив, приключения, WEB-DLRip | LostFilm]

Dracon

254 | 612

3.25 ГБ

В этой теме нет новых непрочитанных сообщений. Сонная лощина / Sleepy Hollow (Сезон 3, Серия 1-7 из 18) ( Лен Уайзман) [2015, Фантастика,фэнтези, триллер, WEBDLRip-AVC][1080р] [MVO] [LostFilm]

Враг Нароода

0 | 0

13.95 ГБ

В этой теме нет новых непрочитанных сообщений. Сонная Лощина / Sleepy Hollow [03х01-09 из 18] (Кен Олин, Эрнест Р. Дикерсон, Пол А. Эдвардс) [2015, фэнтези, триллер, драма, детектив, приключения, WEB-DL 720p | LostFilm]

Nickolas3435

4 | 7

13.02 ГБ


Начать новую тему Ответить на тему  [ 1 сообщение ] 




Для Мосгорсуда, Роскомнадзора и рекламодателей:: mosgorsud-torrent[собачка]yandex.ru