Торрент файл
скачать торрент магнет ссылка Добавлен: 28 апр 2016, 15:39
Размер: 9.24 ГБ
Сидеров: 0
Личеров: 0
Автор

СообщениеДобавлено: 08 апр 2016, 21:25 

Не в сети
Аватара пользователя
Дата регистрации:
09 авг 2014, 12:07
Спасибо: 49 / 1
Сообщения: 156
Откуда: КРАСНОГОРСК
Цари и пророки / Of Kings and Prophets Сезон 1, Серия 1-5 из 13



Год выпуска: 2016
Выпущено: США,ABC Studios, BoomGen Studios
Жанр: Историческая Драма
Продолжительность: 00:44:00
Сезон:1
Серия: 1-5
Количество серий в сезоне: 13

Озвучка 1: Профессиональный многоголосый - BaibaKo -Русский

Озвучка 2: Профессиональный многоголосый - AMC -Русский

Озвучка 3: Профессиональный многоголосый - Английский - Оригинал

Субтитры: : Русские,Английские


Кино Поиск


Режиссер: Джеффри Начманофф, Дуан Кларк

В ролях: Рэй Уинстон, Симона Кэссел, Джеймс Флойд, Элоди Юнг, Келси Иган, Джо Ваз

«Цари и пророки» — библейское сказание об амбициях и коварстве. Эпопея об измождённом войнами царе Сауле, всесильном и гордом пророке и находчивом юном пастухе. Действие разворачивается более 2000 лет назад, в эпоху Ветхого Завета.




Качество :WEB-DLRip-AVC 1080p
Формат: MKV
Видео кодек: H264
Видео: 5112Кбит/сек,1920х1080(16.9),в 23.976кадр/сек,AVC(High@L4)(CABAC/4 Ref Frames)
Аудио Кодек:AC3
Аудио #1:AC3 , 384 Kbps, 48.0 KHz, 6 ch- BaibaKo -Русский
Аудио #2:AC3 , 384 Kbps, 48.0 KHz, 6 ch- AMC -Русский
Аудио #5: AC3, 384 Kbps, 48.0 KHz,6 ch - - English - Оригинал

Звуковая дорожка сделана путем наложения чистого голоса озвучивателей на центральный канал оригинальной дорожки. Качество идентично звуковой дорожке.



1. Кровавая жертва
2. Нечестивые же да посрамятся
3. Да не усну я сном мертвым



Общее
Уникальный идентификатор : 170300408696390592195988537091348141187 (0x801EAA69051754CFBB5756F29A469483)
Полное имя : E:\К ИНО\ИСТОРИЧЕСКИЕ\ЦАРИ И ПРОРОКИ\Of_Kings_&_ Prophets_2016_S01_[BaibaKo_AMC]_DD5.1_N.B_WEB-DL_1080_Rus_Eng\Of_Kings_&_ Prophets_2016_S01Е01_[BaibaKo_AMC]_DD5.1_N.B_WEB-DL_1080_Rus_Eng.mkv
Формат : Matroska
Версия формата : Version 4 / Version 2
Размер файла : 1,89 Гбайт
Продолжительность : 43 м.
Общий поток : 6265 Кбит/сек
Название фильма : Of_Kings_&_ Prophets_2016_S01Е01_[BaibaKo_AMC]_DD5.1_N.B_WEB-DL_1080_Rus_Eng
Дата кодирования : UTC 2016-04-06 15:51:35
Программа кодирования : mkvmerge v9.0.1 ('Obstacles') 64bit
Библиотека кодирования : libebml v1.3.3 + libmatroska v1.4.4

Видео
Идентификатор : 1
Формат : AVC
Формат/Информация : Advanced Video Codec
Профиль формата : High@L4
Параметр CABAC формата : Да
Параметр ReFrames формата : 4 кадра
Идентификатор кодека : V_MPEG4/ISO/AVC
Продолжительность : 43 м.
Битрейт : 5112 Кбит/сек
Ширина : 1920 пикселей
Высота : 1080 пикселей
Соотношение сторон : 16:9
Режим частоты кадров : Постоянный
Частота кадров : 23,976 кадра/сек
Цветовое пространство : YUV
Субдискретизация насыщенности : 4:2:0
Битовая глубина : 8 бит
Тип развёртки : Прогрессивная
Бит/(Пиксели*Кадры) : 0.103
Размер потока : 1,54 Гбайт (82%)
Default : Нет
Forced : Нет
Цветовой диапазон : Limited
Основные цвета : BT.709
Характеристики трансфера : BT.709
Коэффициенты матрицы : BT.709

Аудио #1
Идентификатор : 4
Формат : AC-3
Формат/Информация : Audio Coding 3
Расширение режима : CM (complete main)
Параметр Endianness формата : Big
Идентификатор кодека : A_AC3
Продолжительность : 43 м.
Вид битрейта : Постоянный
Битрейт : 384 Кбит/сек
Каналы : 6 каналов
Расположение каналов : Front: L C R, Side: L R, LFE
Частота : 48,0 КГц
Частота кадров : 31,250 кадров/сек (1536 spf)
Метод сжатия : С потерями
Размер потока : 118 Мбайт (6%)
Заголовок : BaibaKo.tv
Язык : Russian
Default : Да
Forced : Нет

Аудио #2
Идентификатор : 5
Формат : AC-3
Формат/Информация : Audio Coding 3
Расширение режима : CM (complete main)
Параметр Endianness формата : Big
Идентификатор кодека : A_AC3
Продолжительность : 43 м.
Вид битрейта : Постоянный
Битрейт : 384 Кбит/сек
Каналы : 6 каналов
Расположение каналов : Front: L C R, Side: L R, LFE
Частота : 48,0 КГц
Частота кадров : 31,250 кадров/сек (1536 spf)
Метод сжатия : С потерями
Размер потока : 118 Мбайт (6%)
Заголовок : Adiós Muchacos
Язык : Russian
Default : Нет
Forced : Нет

Аудио #3
Идентификатор : 6
Формат : AC-3
Формат/Информация : Audio Coding 3
Расширение режима : CM (complete main)
Параметр Endianness формата : Big
Идентификатор кодека : A_AC3
Продолжительность : 43 м.
Вид битрейта : Постоянный
Битрейт : 384 Кбит/сек
Каналы : 6 каналов
Расположение каналов : Front: L C R, Side: L R, LFE
Частота : 48,0 КГц
Частота кадров : 31,250 кадров/сек (1536 spf)
Метод сжатия : С потерями
Размер потока : 118 Мбайт (6%)
Язык : English
Default : Нет
Forced : Нет

Текст #1
Идентификатор : 2
Формат : UTF-8
Идентификатор кодека : S_TEXT/UTF8
Идентификатор кодека/Информация : UTF-8 Plain Text
Продолжительность : 42 м.
Битрейт : 69 бит/сек
Count of elements : 462
Размер потока : 21,7 Кбайт (0%)
Заголовок : rus-sub
Язык : Russian
Default : Нет
Forced : Нет

Текст #2
Идентификатор : 3
Формат : UTF-8
Идентификатор кодека : S_TEXT/UTF8
Идентификатор кодека/Информация : UTF-8 Plain Text
Продолжительность : 41 м.
Битрейт : 52 бит/сек
Count of elements : 611
Размер потока : 16,1 Кбайт (0%)
Заголовок : eng-sub
Язык : English
Default : Нет
Forced : Нет









Внимание! Раздача ведётся путём добавления новых серий!


Раздача ведётся путём добавления новых серий; при каждом добавлении создётся новый торрент.
Чтобы начать докачку новой серии, пользователям необходимо сделать следующее:
1. остановить скачивание,
2. удалить старый торрент у себя из клиента (старые серии удалять не надо),
3. скачать новый торрент и запустить его у себя в клиенте вместо старого, при этом указать клиенту путь в старую папку, куда и должно происходить скачивание новых серий.

Ваш клиент при этом должен произвести хеширование (проверку) старой папки (если не производит сам - помогите ему сделать это), и будет докачивать только те серии которых у вас ещё нет. Старые серии при этом не удаляются, а продолжают раздаваться!

Eсли вы уже удалили старые серии, то предотвратить повторную закачку старых серий можно, отжав галочку в соответсвующих местах при запуске нового торрента. По возможности, желательно не удалять старые серии как можно дольше, чтобы релизёр не столько продолжал раздавать старые серии, а смог сконцентрироваться на новых.

Совет для тех, кто не хочет ждать перехеширования:
Создайте ещё одну папку рядом с папкой сериала (рядом, а не в ней!!!). Каждую новую серию после удачной загрузки копируйте в новую папку так чтобы ваша основная папка всегда была пуста. Когда ваш новый торрент предложит вам закачать все файлы, выберете только последнюю. Для сидирования же укажите адрес новой папки.

Как закачать отдельный файл из торрента или докачать ранее пропущенные файлы торрента!

1. Открыть торрент
2. Снять галки с тех файлов торрента, которые мы не хотим закачивать. Оставляем только на нужных нам файлах (файле).
3. Нажать О.К.

В клиенте utorrent

Инструкция

1) Открыть торрент


2) Снять галки с тех файлов торрента, которые мы не хотим закачивать:

* либо вручную, снимая с каждого файла галку( скрин №1)
* либо, нажав кнопку "Снять метки (Select None)", сняв сразу со всех файлов(скрин №2)
№1

№2

Оставляем только на нужных нам файлах (файле).

3)Нажать О.К










Внимание!!! 28.04. 2016. РАЗДАЧА ОБНОВЛЕНА. ОБНОВИТЕ ТОРЕНТ ФАЙЛ.ПРИЯТНОГО ПРОСМОТРА .


Релиз от: Nikolai.Baranov & PIRATIYA







_________________

Легко быть оптимистом, когда судьба не валит с ног тяжелыми ударами, а лишь иногда легонько шлепает по заднице.



реклама партнёра


Вернуться к началу
 Профиль Отправить личное сообщение  
 
   Похожие торренты   Автор   Торрент   Размер 
В этой теме нет новых непрочитанных сообщений. Цари и пророки / Of Kings and Prophets (Сезон 1, Серия 1-9 из 13) (Джеффри Начманофф, Дуан Кларк) [2016, Историческая Драма , WEB-DLRip][1080p] [DD5.1] [BaibaKo , English]

Враг Нароода

7 | 5

16.74 ГБ

В этой теме нет новых непрочитанных сообщений. Цари и пророки / Of Kings and Prophets / 1 сезон 1-9 серии из 9 [исторический, драма, 2016] WEB-DLRip, Mvo [BaibaKo]

salma3

394 | 338

4.96 ГБ

В этой теме нет новых непрочитанных сообщений. Проповедник / Preacher (Сезон 1, Серия 1-10 из 10) (Сет Роген) [2016, Фэнтези, драма, детектив, приключения , WEB-DLRip 1080p ] [DD5.1] [MVO] [AlexFilm,,LostFilm,NewStudiо,BaibaKo,FocusStudiо,Kubik V Kube,Kravec, English + Subs Rus,ENG]

Враг Нароода

0 | 0

28.25 ГБ

В этой теме нет новых непрочитанных сообщений. Мистер Робот / Mr. Robot (Сезон 2, Серия 1-12 из 12 ) (Нильс Арден Оплев) [2016, Детектив, Драма, Криминал , WEB-DLRip 1080p ] [MVO] [LostFilm,NewStudiо,BaibaKo,Kravec,OMSKBIRD,Kubik V Kube, English + Subs Rus,ENG]

Враг Нароода

0 | 0

41.05 ГБ

В этой теме нет новых непрочитанных сообщений. Мистер Робот / Mr. Robot (Сезон 2, Серия 1-8 из 13) (Нильс Арден Оплев) [2016, Детектив, Драма, Криминал , WEB-DLRip 1080p ] [MVO] [LostFilm,NewStudiо,BaibaKo,Kravec,OMSKBIRD,FocusStudiо,Kubik V Kube, English + Subs Rus,ENG]

Враг Нароода

1 | 2

31.72 ГБ

В этой теме нет новых непрочитанных сообщений. Элементарно / Elementary (Сезон 4-5, Серия 1-30 из 48) (Джон Полсон, Эндрю Бернштейн, Сет Манн ) [2015-2016 , Драма, Криминал, Детектив , WEB-DLRip-AVC 1080p] [MVO] [NewStudio , LostFilm , English] + [Subs Rus,ENG]

Враг Нароода

6 | 0

56.11 ГБ

В этой теме нет новых непрочитанных сообщений. Элементарно / Elementary (Сезон 4, Серия 1-18 из 24) (Джон Полсон, Эндрю Бернштейн, Сет Манн ) [2015-2016 , Драма, Криминал, Детектив , WEB-DLRip-AVC 1080p] [MVO] [NewStudio , LostFilm , English] + [Subs Rus,ENG]

Враг Нароода

0 | 0

33.6 ГБ


Начать новую тему Ответить на тему  [ 1 сообщение ] 




Для Мосгорсуда, Роскомнадзора и рекламодателей:: mosgorsud-torrent[собачка]yandex.ru