Торрент файл
скачать торрент магнет ссылка Добавлен: 07 апр 2016, 20:42
Размер: 47.93 ГБ
Сидеров: 3
Личеров: 7
Автор

СообщениеДобавлено: 07 апр 2016, 20:43 

Не в сети
Аватара пользователя
Дата регистрации:
09 авг 2014, 12:07
Спасибо: 55 / 1
Сообщения: 190
Откуда: КРАСНОГОРСК


Ходячие мертвецы / The Walking Dead Сезон 6, Серии 1-116 из 16



Год выпуска: 2015-2016
Выпущено: США,AMC Studios, Circle of Confusion, Darkwoods Productions, Valhalla Motion Pictures
Жанр: Ужасы, триллер, фантастика, экшен, зомби,апокалипсис
Продолжительность:3 x ~01:04:44, 13 x ~ 00:43:00
Автор идеи: Эрнест Р. Дикерсон, Гвинет Хордер-Пэйтон
Сезон: 6
Серия: 1-16
Количество серий в сезоне: 16

Озвучка 1: Профессиональный многоголосый -LostFilm

Озвучка 2: Профессиональный многоголосый -FOX

Озвучка 3: Профессиональный многоголосый - BaibaKo

Озвучка 4: Профессиональный многоголосый - HamsterStudio

Озвучка 5: Профессиональный многоголосый - Jaskier

Озвучка 6: Профессиональный многоголосый Украинский- Uateam

Субтитры: :Русские, Английские

Сайт сериала:



Режиссер: Фрэнк Дарабонт, Эрнест Р. Дикерсон, Гай Ферленд и др.

В ролях: Джон Бернтал, Джеффри ДеМунн, Лори Холден, Эндрю Линкольн, Деррик МакЛеод, Адам Минарович, Чендлер Риггз, Майкл Рукер, Сара Уэйн Кэллис и др.


После страшной болезни, превратившей жителей Земли в зомби, небольшая группа пока еще живых людей изо дня в день борется за выживание в новом, враждебном мире. Под предводительством бывшего полицейского Рика они ищут безопасное для жизни место, но зомби — это не самое страшное, что их ждет, основная опасность — это жестокое внутреннее соперничество среди выживших.





Качество :WEB-DLRip-AVC 1080p
Формат: MKV
Видео кодек: H264
Видео: 6088Кбит/сек,1920х1080(16.9),в 25.000кадр/сек,AVC(PAL)(High@L4)(CABAC/3 Ref Frames)
Аудио Кодек:AC3
Аудио #1:AC3 , 384 Kbps, 48.0 KHz, 6 ch- -LostFilm
Аудио #2: AC3, 384Kbps, 48.0 KHz, 6 ch - -FOX
Аудио #3: AC3, 384 Kbps, 48.0 KHz, 6 ch - - BaibaKo
Аудио #4: AC3, 384 Kbps, 48.0 KHz, 6 ch - - HamsterStudio
Аудио #5: AC3, 384 Kbps, 48.0 KHz, 6 ch - - Jaskier
Аудио #6: AC3, 384 Kbps, 48.0 KHz, 6 ch Украинский- - Uateam
Аудио #7: AC3, 384 Kbps, 48.0 KHz,6 ch - - English



Звуковая дорожка сделана путем наложения чистого голоса озвучивателей на центральный канал оригинальной дорожки. Качество идентично звуковой дорожке.



01 Снова как в первый раз (First Time Again)
02 Выживи любой ценой (JSS)
03 Спасибо (Thank You)
04 Неважно, где (Here's Not Here)
05 Сейчас (Now)
06 Всегда в ответе за свой выбор (Always Accountable)
07 Берегись! (Heads Up)
08 От начала и до конца (Start to Finish)
09 Выхода нет (No Way Out)
10 Новый мир (The Next World)
11 Узлы развязаны (Knots Untie)
12 Завтра еще не настало (Not Tomorrow Yet)
13 В одной лодке (The Same Boat)
14 Вдвое дальше (Twice as Far)
15 Восток (East)
16 Последний день на Земле (Last Day on Earth)



Общее
Уникальный идентификатор : 170848193799013059514320756962909275487 (0x80882A4D0CF601C6AB3AA5960C18C55F)
Полное имя : E:\К ИНО\УЖАСЫ\Ходячие мертвецы\The_Walking_Dead_S06_Rus_Ukr_Eng[LostFilm_FOX_ BaibaKo_HamsterStudio_Jaskier_Uateam]H264_N.B_WEB-DLRip_1080\The_Walking_Dead_2015_S06E01_5xRus_Ukr_Eng_H264_DD5.1_N.B_WEB-DLRip_1080.mkv
Формат : Matroska
Версия формата : Version 4 / Version 2
Размер файла : 4,05 Гбайт
Продолжительность : 1 ч. 4 м.
Режим общего битрейта : Переменный
Общий поток : 8946 Кбит/сек
Название фильма : The_Walking_Dead_2015_S06E01_5xRus_Ukr_Eng_H264_DD5.1_N.B_WEB-DLRip_1080
Дата кодирования : UTC 2015-10-28 08:22:43
Программа кодирования : mkvmerge v8.5.1 ('Where you lead I will follow') 64bit
Библиотека кодирования : libebml v1.3.3 + libmatroska v1.4.4
Attachements : small_cover.jpg / cover.jpg / cover_land.jpg / small_cover_land.jpg
DURATION : 01:04:44.032000000
NUMBER_OF_FRAMES : 121376
NUMBER_OF_BYTES : 186433536
_STATISTICS_WRITING_APP : mkvmerge v8.5.1 ('Where you lead I will follow') 64bit
_STATISTICS_WRITING_DATE_UTC : 2015-10-28 08:22:43
_STATISTICS_TAGS : BPS DURATION NUMBER_OF_FRAMES NUMBER_OF_BYTES

Видео
Идентификатор : 1
Формат : AVC
Формат/Информация : Advanced Video Codec
Профиль формата : High@L4
Параметр CABAC формата : Да
Параметр ReFrames формата : 3 кадра
Идентификатор кодека : V_MPEG4/ISO/AVC
Продолжительность : 1 ч. 4 м.
Вид битрейта : Переменный
Битрейт : 6080 Кбит/сек
Максимальный битрейт : 6500 Кбит/сек
Ширина : 1920 пикселей
Высота : 1080 пикселей
Соотношение сторон : 16:9
Режим частоты кадров : Постоянный
Частота кадров : 25,000 кадров/сек
Стандарт вещания : PAL
Цветовое пространство : YUV
Субдискретизация насыщенности : 4:2:0
Битовая глубина : 8 бит
Тип развёртки : Прогрессивная
Бит/(Пиксели*Кадры) : 0.117
Размер потока : 2,75 Гбайт (68%)
Язык : English
Default : Да
Forced : Нет
Цветовой диапазон : Limited
Основные цвета : BT.709
Характеристики трансфера : BT.709
Коэффициенты матрицы : BT.709

Аудио #1
Идентификатор : 4
Формат : AC-3
Формат/Информация : Audio Coding 3
Расширение режима : CM (complete main)
Параметр Endianness формата : Big
Идентификатор кодека : A_AC3
Продолжительность : 1 ч. 4 м.
Вид битрейта : Постоянный
Битрейт : 384 Кбит/сек
Каналы : 6 каналов
Расположение каналов : Front: L C R, Side: L R, LFE
Частота : 48,0 КГц
Метод сжатия : С потерями
Размер потока : 178 Мбайт (4%)
Default : Да
Forced : Нет

Аудио #2
Идентификатор : 5
Формат : AC-3
Формат/Информация : Audio Coding 3
Расширение режима : CM (complete main)
Параметр Endianness формата : Big
Идентификатор кодека : A_AC3
Продолжительность : 1 ч. 4 м.
Вид битрейта : Постоянный
Битрейт : 384 Кбит/сек
Каналы : 6 каналов
Расположение каналов : Front: L C R, Side: L R, LFE
Частота : 48,0 КГц
Метод сжатия : С потерями
Размер потока : 178 Мбайт (4%)
Default : Нет
Forced : Нет

Аудио #3
Идентификатор : 6
Формат : AC-3
Формат/Информация : Audio Coding 3
Расширение режима : CM (complete main)
Параметр Endianness формата : Big
Идентификатор кодека : A_AC3
Продолжительность : 1 ч. 4 м.
Вид битрейта : Постоянный
Битрейт : 384 Кбит/сек
Каналы : 6 каналов
Расположение каналов : Front: L C R, Side: L R, LFE
Частота : 48,0 КГц
Метод сжатия : С потерями
Размер потока : 178 Мбайт (4%)
Default : Нет
Forced : Нет

Аудио #4
Идентификатор : 7
Формат : AC-3
Формат/Информация : Audio Coding 3
Расширение режима : CM (complete main)
Параметр Endianness формата : Big
Идентификатор кодека : A_AC3
Продолжительность : 1 ч. 4 м.
Вид битрейта : Постоянный
Битрейт : 384 Кбит/сек
Каналы : 6 каналов
Расположение каналов : Front: L C R, Side: L R, LFE
Частота : 48,0 КГц
Метод сжатия : С потерями
Размер потока : 178 Мбайт (4%)
Default : Нет
Forced : Нет

Аудио #5
Идентификатор : 8
Формат : AC-3
Формат/Информация : Audio Coding 3
Расширение режима : CM (complete main)
Параметр Endianness формата : Big
Идентификатор кодека : A_AC3
Продолжительность : 1 ч. 4 м.
Вид битрейта : Постоянный
Битрейт : 384 Кбит/сек
Каналы : 6 каналов
Расположение каналов : Front: L C R, Side: L R, LFE
Частота : 48,0 КГц
Метод сжатия : С потерями
Размер потока : 178 Мбайт (4%)
Default : Нет
Forced : Нет

Аудио #6
Идентификатор : 9
Формат : AC-3
Формат/Информация : Audio Coding 3
Расширение режима : CM (complete main)
Параметр Endianness формата : Big
Идентификатор кодека : A_AC3
Продолжительность : 1 ч. 4 м.
Вид битрейта : Постоянный
Битрейт : 384 Кбит/сек
Каналы : 6 каналов
Расположение каналов : Front: L C R, Side: L R, LFE
Частота : 48,0 КГц
Метод сжатия : С потерями
Размер потока : 178 Мбайт (4%)
Default : Нет
Forced : Нет

Аудио #7
Идентификатор : 10
Формат : AC-3
Формат/Информация : Audio Coding 3
Расширение режима : CM (complete main)
Параметр Endianness формата : Big
Идентификатор кодека : A_AC3
Продолжительность : 1 ч. 4 м.
Вид битрейта : Постоянный
Битрейт : 384 Кбит/сек
Каналы : 6 каналов
Расположение каналов : Front: L C R, Side: L R, LFE
Частота : 48,0 КГц
Метод сжатия : С потерями
Размер потока : 178 Мбайт (4%)
Default : Нет
Forced : Нет

Текст #1
Идентификатор : 2
Формат : UTF-8
Идентификатор кодека : S_TEXT/UTF8
Идентификатор кодека/Информация : UTF-8 Plain Text
Язык : Russian
Default : Нет
Forced : Нет

Текст #2
Идентификатор : 3
Формат : UTF-8
Идентификатор кодека : S_TEXT/UTF8
Идентификатор кодека/Информация : UTF-8 Plain Text
Язык : English
Default : Нет
Forced : Нет










1. Открыть торрент
2. Снять галки с тех файлов торрента, которые мы не хотим закачивать. Оставляем только на нужных нам файлах (файле).
3. Нажать О.К.

В клиенте utorrent

Инструкция

1) Открыть торрент


2) Снять галки с тех файлов торрента, которые мы не хотим закачивать:

* либо вручную, снимая с каждого файла галку( скрин №1)
* либо, нажав кнопку "Снять метки (Select None)", сняв сразу со всех файлов(скрин №2)
№1

№2

Оставляем только на нужных нам файлах (файле).

3)Нажать О.К








Внимание!!! 07.04. 2016. РАЗДАЧА ОБНОВЛЕНА. ОБНОВИТЕ ТОРЕНТ ФАЙЛ.ПРИЯТНОГО ПРОСМОТРА .


Релиз от: Nikolai.Baranov & PIRATIYA







_________________

Легко быть оптимистом, когда судьба не валит с ног тяжелыми ударами, а лишь иногда легонько шлепает по заднице.



реклама партнёра


Вернуться к началу
 Профиль Отправить личное сообщение  
 
   Похожие торренты   Автор   Торрент   Размер 
В этой теме нет новых непрочитанных сообщений. Ходячие мертвецы / The Walking Dead (Сезон 6, Серии 1-14 из 16) (Фрэнк Дарабонт, Эрнест Р. Дикерсон) [2015-2016, Ужасы, триллер, фантастика, WEB-DLRip 1080p] [LostFilm , FOX , BaibaKo , HamsterStudio , Jaskier , Uateam]+[Sub Rus, Eng]

Враг Нароода

В этой теме нет новых непрочитанных сообщений. Ходячие мертвецы / The Walking Dead (Сезон 6, Серии 1-15 из 16) (Фрэнк Дарабонт, Эрнест Р. Дикерсон) [2015-2016, Ужасы, триллер, фантастика, WEB-DLRip 1080p] [LostFilm , FOX , BaibaKo , HamsterStudio , Jaskier , Uateam]+[Sub Rus, Eng]

Враг Нароода

В этой теме нет новых непрочитанных сообщений. Ходячие мертвецы / The Walking Dead (Сезон 6, Серии 1-13 из 16) (Фрэнк Дарабонт, Эрнест Р. Дикерсон) [2015-2016, Ужасы, триллер, фантастика, WEB-DLRip 1080p] [LostFilm , FOX , BaibaKo , HamsterStudio , Jaskier , Uateam]+[Sub Rus, Eng]

Враг Нароода

В этой теме нет новых непрочитанных сообщений. Ходячие мертвецы / The Walking Dead (Сезон 7, Серии 1-16 из 16) (Фрэнк Дарабонт, Эрнест Р. Дикерсон) [2016-2017, Ужасы, триллер, фантастика, WEB-DLRip 1080p] [LostFilm , FOX , BaibaKo , HamsterStudio , Jaskier , Uateam , English]+[Sub Rus,

Враг Нароода

0 | 0

57.08 ГБ

В этой теме нет новых непрочитанных сообщений. Ходячие мертвецы / The Walking Dead [06x01-07 из 16] (Эрнест Р. Дикерсон, Билл Джирхарт, Гай Ферленд) [Ужасы, триллер, драма, фантастика, 2015] WEB-DLRip [Baibako]

Dracon

10 | 14

4.58 ГБ

В этой теме нет новых непрочитанных сообщений. Ходячие мертвецы / The Walking Dead [06x01-15 из 16] (Эрнест Р. Дикерсон, Билл Джирхарт, Гай Ферленд) [Ужасы, триллер, драма, фантастика, 2015] WEB-DLRip [LostFilm]

Dracon

668 | 2013

8 ГБ

В этой теме нет новых непрочитанных сообщений. Ходячие мертвецы / The Walking Dead [06x01-12 из 16] (Эрнест Р. Дикерсон, Билл Джирхарт, Гай Ферленд) [Ужасы, триллер, драма, фантастика, 2015] WEB-DL 1080p [LostFilm]

Dracon


Начать новую тему Ответить на тему  [ 1 сообщение ] 




Для Мосгорсуда, Роскомнадзора и рекламодателей:: mosgorsud-torrent[собачка]yandex.ru