Торрент файл
скачать торрент магнет ссылка Добавлен: 23 мар 2016, 17:00
Размер: 53.73 ГБ
Сидеров: 2
Личеров: 3
Статус: (salma3)
Автор

СообщениеДобавлено: 23 мар 2016, 17:00 

Не в сети
Супермодератор
Аватара пользователя
Дата регистрации:
15 фев 2012, 16:44
Возраст: 27
Спасибо: 5131 / 2089
Сообщения: 17372
Перевод: Профессиональный (полное дублирование), cубтитры: отсутствуют
Формат: SATRip, AVI, XviD, MP3
Страна: Мексика
Режиссер: Эрнесто Арреола, Беатрис Шеридан
Жанр: мелодрама, комедия
Всего серий: 99
Продолжительность: 99 x ~ 00:40:00
Год выпуска: 1987-1988

В ролях: Вероника Кастро, Гильермо Капетильо, Роберто Баллестерос, Эдит Гонзалес, Фелисия Меркадо, Лилиана Абуд, Патрисия Ансиро, Сокорро Авелар, Клаудио Баес, Армандо Кальво, Рене Кардона,

Описание:
Главная героиня сериала - молодая, необразованная, но очень добрая и честная девушка – Роза Гарсия. Роза живёт в трущобах, вместе со своей крёстной Томасой и не знает о том, что её богатая мать безуспешно ищет её многие годы. Однажды, вместе с мальчишками, Роза залезает в богатый дом, чтобы украсть немного слив. Знатная семья хочет сдать Розу в полицию, но молодой хозяин дома – Рикардо Линарес заступается за неё. Чтобы доказать своим сестрам - Дульсине и Кандиде, что он самостоятелен в своих поступках, Рикардо решает жениться на первой встречной, и приводит в дом Розу Гарсия. С этого и начинается этот замечательный мексиканский сериал, ставший, безусловно, классикой жанра.



Видео: 720x540 (4:3), 25 fps, XviD MPEG-4 ~1725 kbps avg, 0.177 bit/pixel
Аудио#1: 48 kHz, MPEG Layer 3, 2 ch, ~128.00 kbps avg (Дублированный)
Аудио#2: 48 kHz, MPEG Layer 3, 2 ch, ~128.00 kbps avg (Испанский)

Доп. информация:
Версия с двумя звуковыми дорожками, по умолчанию воспроизводится русская. Запись видео с испанского спутникового канала, озвучка - Останкино (полное дублирование)

Общее
Полное имя : C:\Users\Admin\Downloads\Rosa_salvaje\Rosa_Salvaje_001.avi
Формат : AVI
Формат/Информация : Audio Video Interleave
Размер файла : 572 Мбайт
Продолжительность : 40 м.
Общий поток : 1996 Кбит/сек
Программа кодирования : VirtualDubModRus 1.5.10.2 (build 2540/release)
Библиотека кодирования : VirtualDubMod build 2540/release

Видео
Идентификатор : 0
Формат : MPEG-4 Visual
Профиль формата : Advanced Simple@L5
Параметр BVOP формата : 2
Параметр QPel формата : Нет
Параметр GMC формата : Без точки перехода
Параметр матрицы формата : Default (H.263)
Режим смешивания : Сжатый битовый поток
Идентификатор кодека : XVID
Идентификатор кодека/Подсказка : XviD
Продолжительность : 40 м.
Битрейт : 1725 Кбит/сек
Ширина : 720 пикселей
Высота : 540 пикселей
Соотношение сторон : 4:3
Частота кадров : 25,000 кадров/сек
Цветовое пространство : YUV
Субдискретизация насыщенности : 4:2:0
Битовая глубина : 8 бит
Тип развёртки : Прогрессивная
Метод сжатия : С потерями
Бит/(Пиксели*Кадры) : 0.177
Размер потока : 494 Мбайт (86%)
Библиотека кодирования : XviD 63

Аудио #1
Идентификатор : 1
Формат : MPEG Audio
Версия формата : Version 1
Профиль формата : Layer 3
Идентификатор кодека : 55
Идентификатор кодека/Подсказка : MP3
Продолжительность : 40 м.
Вид битрейта : Постоянный
Битрейт : 128 Кбит/сек
Каналы : 2 канала
Частота : 44,1 КГц
Метод сжатия : С потерями
Размер потока : 36,7 Мбайт (6%)
Выравнивание : Разделение по промежуткам
Продолжительность промежутка : 40 мс. (1,00 видеокадр)
Время предзагрузки промежутка : 500 мс.

Аудио #2
Идентификатор : 2
Формат : MPEG Audio
Версия формата : Version 1
Профиль формата : Layer 3
Режим : Joint stereo
Расширение режима : MS Stereo
Идентификатор кодека : 55
Идентификатор кодека/Подсказка : MP3
Продолжительность : 40 м.
Вид битрейта : Постоянный
Битрейт : 128 Кбит/сек
Каналы : 2 канала
Частота : 48,0 КГц
Метод сжатия : С потерями
Размер потока : 36,7 Мбайт (6%)
Выравнивание : Разделение по промежуткам
Продолжительность промежутка : 40 мс. (1,00 видеокадр)
Время предзагрузки промежутка : 500 мс.



_________________



реклама партнёра


Вернуться к началу
 Профиль Отправить личное сообщение  
 
   Похожие торренты   Автор   Торрент   Размер 
В этой теме нет новых непрочитанных сообщений. Бриллиантовая Роза / Rosa Diamante / Серии: 31-60 из 125 [мелодрама, 2012] SATRip, Mvo

salma3

2 | 2

15.8 ГБ

В этой теме нет новых непрочитанных сообщений. Бриллиантовая Роза / Rosa Diamante / Серии: 91-125 из 125 [мелодрама, 2012] SATRip, Mvo

salma3

6 | 3

18.26 ГБ

В этой теме нет новых непрочитанных сообщений. Бриллиантовая Роза / Rosa Diamante / Серии: 61-90 из 125 [мелодрама, 2012] SATRip, Mvo

salma3

8 | 5

15.93 ГБ

В этой теме нет новых непрочитанных сообщений. Бриллиантовая Роза / Rosa Diamante / Серии: 1-30 из 125 [мелодрама, 2012] SATRip, Mvo

salma3

2 | 2

16.33 ГБ

В этой теме нет новых непрочитанных сообщений. Бриллиантовая роза / Rosa Diamante / 1 сезон 125 серий из 125 [мелодрама, 2012] SATRip, Mvo [Много ТВ]

salma3

5 | 20

66.33 ГБ

В этой теме нет новых непрочитанных сообщений. Дикая штучка / Wild Thing [Боевик, триллер, 1987] HDTVRip, Avo

salma3

1 | 0

1.42 ГБ

В этой теме нет новых непрочитанных сообщений. Дикая-дикая планета / I criminali della galassia [фантастика, 1965] DVDRip, Avo

salma3

29 | 3

1.46 ГБ


Начать новую тему Ответить на тему  [ 1 сообщение ] 




Для Мосгорсуда, Роскомнадзора и рекламодателей:: mosgorsud-torrent[собачка]yandex.ru