Торрент файл
скачать торрент магнет ссылка Добавлен: 15 мар 2016, 22:18
Размер: 26.26 ГБ
Сидеров: 0
Личеров: 0
Автор

СообщениеДобавлено: 15 мар 2016, 22:18 

Не в сети
Аватара пользователя
Дата регистрации:
09 авг 2014, 12:07
Спасибо: 48 / 1
Сообщения: 156
Откуда: КРАСНОГОРСК


Готэм / Gotham Сезон 2, Серия 1-13 из 22



Год выпуска:2015-2016
Выпущено:США, Primrose Hill Productions, DC Comics, Warner Bros. Television
Жанр: триллер, драма, криминал
Продолжительность: 00:43:00
Сезон:2
Серия: 1-13
Количество серий в сезоне: 22

Озвучка 1: Профессиональный многоголосый - HamsterStudio -Русский

Озвучка 2: Профессиональный многоголосый - LostFilm -Русский

Озвучка 3: Профессиональный многоголосый - NewStudio -Русский

Озвучка 4: Профессиональный многоголосый - Английский - Оригинал

Субтитры: : Русские,Английские


Официальный сайт



Режиссер: Дэнни Кэннон, Т.Дж. Скотт, Дермотт Даунс.

Сценаристы::Бруно Хеллер, Бен Эдлунд, Боб Кэйн, Билл Фингер, Фрэнк Миллер.

В ролях: Бен Маккензи (Джеймс Гордон), Донал Лог (Харви Буллок), Шон Пертви (Альфред Пенниуорт), Джада Пинкетт Смит (Фиш Муни), Робин Тейлор (Освальд Кобблпот), Забрина Гуэвара (Сара Эссен), Эрин Ричардс (Барбара Кин), Джон Домэн (Кармайн Фальконе), Камрен Бикондова (Селина Кайл), Дэвид Мазоуз (Брюс Уэйн).



О сериале "Готэм":
«Готэм» — криминальный экшен-триллер, открывающий новую главу развития вселенной DC Comics. Сериал расскажет историю становления таких известных преступников коррумпированного мегаполиса, как Женщина-кошка, Пингвин, Загадочник, Мистер Фриз, Пугало и Джокер. Также поклонники комиксов увидят трансформацию маленького напуганного Брюса Уэйна в одного из самых популярных супергероев нашего времени — Бэтмена.

Сюжет:
Герой войны Джеймс Гордон (Бен Маккензи) возвращается в родной Готэм и устраивается на работу в полицию, горя желанием восстановить порядок в страдающем от беззакония городе. Храбрый и честный новичок, получивший в напарники умудренного опытом детектива Харви Буллока (Донал Лог), приступает к расследованию убийства миллиардеров Томаса (Грэйсон МакКауч) и Марты Уэйн (Бреттания Фризе). На месте преступления Джеймс встречает их сына (Дэвид Мазоуз) и дает ему обещание во что бы то ни стало найти убийцу родителей. Гордон еще не знает, что эта встреча сыграет ключевую роль в судьбе юного Брюса Уэйна…





Качество :WEB-DLRip-AVC 1080p
Формат: MKV
Видео кодек: H264
Видео: 4990Кбит/сек,1916х1076(16.9),в 23.976кадр/сек,AVC(High@L4)(CABAC/4 Ref Frames)
Аудио Кодек:AC3
Аудио #1:AC3 , 384 Kbps, 48.0 KHz, 6 ch- HamsterStudio-Русский
Аудио #2:AC3 , 384 Kbps, 48.0 KHz, 6 ch- LostFilm -Русский
Аудио #3:AC3 , 384Kbps, 48.0 KHz, 6 ch- NewStudio -Русский
Аудио #4: AC3, 384 Kbps, 48.0 KHz,6 ch - - English - Оригинал

Звуковая дорожка сделана путем наложения чистого голоса озвучивателей на центральный канал оригинальной дорожки. Качество идентично звуковой дорожке.



01 Сделай и жалей (Damned If You Do)
02 Тук-тук (Knock Knock)
03 Кто смеётся последним (The Last Laugh)
04 Ударный отряд (Strike Force)
05 Шрамирование (Scarification)
06 Огнём (By Fire)
07 Мамочкин монстрик (Mommy's Little Monster)
08 Тот самый день (Tonight's the Night)
09 Горькая пилюля (A Bitter Pill to Swallow)
10 Сын города (The Son of Gotham)
11 Хуже преступления (Worse Than a Crime)
12 Мистер Фриз (Mr. Freeze)
13 Мёртвые не чувствуют холода (A Dead Man Feels No Cold)



Общее
Уникальный идентификатор : 209057387384085689025418110860982076968 (0x9D46FCFDADDF99A49F84275F9BF5C628)
Полное имя : E:\К ИНО\С Е Р И А Л Ы\Г О Т Э М\GOTHAM_2015-2016_S02_3хRUS_ENG[HamsterStudio_LostFilm_NewStudio]_x264_N.B_WEB-DLRip_1080p\GOTHAM_2015_S02E01_3xRUS_ENG_x264_N.B_WEB-DLRip_1080p.mkv
Формат : Matroska
Версия формата : Version 4 / Version 2
Размер файла : 2,01 Гбайт
Продолжительность : 44 м.
Общий поток : 6529 Кбит/сек
Название фильма : GOTHAM_2015_S02E01_3xRUS_ENG_x264_N.B_WEB-DLRip_1080p
Дата кодирования : UTC 2015-12-20 11:16:06
Программа кодирования : mkvmerge v8.6.1 ('Flying') 64bit
Библиотека кодирования : libebml v1.3.3 + libmatroska v1.4.4

Видео
Идентификатор : 1
Формат : AVC
Формат/Информация : Advanced Video Codec
Профиль формата : High@L4
Параметр CABAC формата : Да
Параметр ReFrames формата : 4 кадра
Идентификатор кодека : V_MPEG4/ISO/AVC
Продолжительность : 44 м.
Битрейт : 4990 Кбит/сек
Ширина : 1916 пикселей
Высота : 1076 пикселей
Соотношение сторон : 16:9
Режим частоты кадров : Постоянный
Частота кадров : 23,976 (24000/1001) кадра/сек
Цветовое пространство : YUV
Субдискретизация насыщенности : 4:2:0
Битовая глубина : 8 бит
Тип развёртки : Прогрессивная
Бит/(Пиксели*Кадры) : 0.101
Размер потока : 1,53 Гбайт (76%)
Default : Да
Forced : Нет
Цветовой диапазон : Limited
Основные цвета : BT.709
Характеристики трансфера : BT.709
Коэффициенты матрицы : BT.709

Аудио #1
Идентификатор : 4
Формат : AC-3
Формат/Информация : Audio Coding 3
Расширение режима : CM (complete main)
Параметр Endianness формата : Big
Идентификатор кодека : A_AC3
Продолжительность : 44 м.
Вид битрейта : Постоянный
Битрейт : 384 Кбит/сек
Каналы : 6 каналов
Расположение каналов : Front: L C R, Side: L R, LFE
Частота : 48,0 КГц
Частота кадров : 31,250 кадров/сек (1536 spf)
Метод сжатия : С потерями
Задержка видео : 15 мс.
Размер потока : 121 Мбайт (6%)
Заголовок : HamsterStudio
Язык : Russian
Default : Да
Forced : Да

Аудио #2
Идентификатор : 5
Формат : AC-3
Формат/Информация : Audio Coding 3
Расширение режима : CM (complete main)
Параметр Endianness формата : Big
Идентификатор кодека : A_AC3
Продолжительность : 44 м.
Вид битрейта : Постоянный
Битрейт : 384 Кбит/сек
Каналы : 6 каналов
Расположение каналов : Front: L C R, Side: L R, LFE
Частота : 48,0 КГц
Частота кадров : 31,250 кадров/сек (1536 spf)
Метод сжатия : С потерями
Размер потока : 121 Мбайт (6%)
Заголовок : LostFilm
Язык : Russian
Default : Нет
Forced : Нет

Аудио #3
Идентификатор : 6
Формат : AC-3
Формат/Информация : Audio Coding 3
Расширение режима : CM (complete main)
Параметр Endianness формата : Big
Идентификатор кодека : A_AC3
Продолжительность : 44 м.
Вид битрейта : Постоянный
Битрейт : 384 Кбит/сек
Каналы : 6 каналов
Расположение каналов : Front: L C R, Side: L R, LFE
Частота : 48,0 КГц
Частота кадров : 31,250 кадров/сек (1536 spf)
Метод сжатия : С потерями
Размер потока : 121 Мбайт (6%)
Заголовок : NewStudio
Язык : Russian
Default : Нет
Forced : Нет

Аудио #4
Идентификатор : 7
Формат : AC-3
Формат/Информация : Audio Coding 3
Расширение режима : CM (complete main)
Параметр Endianness формата : Big
Идентификатор кодека : A_AC3
Продолжительность : 44 м.
Вид битрейта : Постоянный
Битрейт : 384 Кбит/сек
Каналы : 6 каналов
Расположение каналов : Front: L C R, Side: L R, LFE
Частота : 48,0 КГц
Частота кадров : 31,250 кадров/сек (1536 spf)
Метод сжатия : С потерями
Задержка видео : 15 мс.
Размер потока : 121 Мбайт (6%)
Язык : English
Default : Нет
Forced : Нет

Текст #1
Идентификатор : 2
Формат : UTF-8
Идентификатор кодека : S_TEXT/UTF8
Идентификатор кодека/Информация : UTF-8 Plain Text
Продолжительность : 43 м.
Битрейт : 90 бит/сек
Count of elements : 537
Размер потока : 28,6 Кбайт (0%)
Заголовок : Antonio
Язык : Russian
Default : Нет
Forced : Нет

Текст #2
Идентификатор : 3
Формат : UTF-8
Идентификатор кодека : S_TEXT/UTF8
Идентификатор кодека/Информация : UTF-8 Plain Text
Продолжительность : 43 м.
Битрейт : 95 бит/сек
Count of elements : 879
Размер потока : 30,3 Кбайт (0%)
Заголовок : eng-sub
Язык : English
Default : Нет
Forced : Нет










Внимание! Раздача пополняется по мере выхода новых серий!


Раздача ведётся путём добавления новых серий; при каждом добавлении создётся новый торрент.
Чтобы начать докачку новой серии, пользователям необходимо сделать следующее:
1. остановить скачивание,
2. удалить старый торрент у себя из клиента (старые серии удалять не надо),
3. скачать новый торрент и запустить его у себя в клиенте вместо старого, при этом указать клиенту путь в старую папку, куда и должно происходить скачивание новых серий.

Ваш клиент при этом должен произвести хеширование (проверку) старой папки (если не производит сам - помогите ему сделать это), и будет докачивать только те серии которых у вас ещё нет. Старые серии при этом не удаляются, а продолжают раздаваться!

Eсли вы уже удалили старые серии, то предотвратить повторную закачку старых серий можно, отжав галочку в соответсвующих местах при запуске нового торрента. По возможности, желательно не удалять старые серии как можно дольше, чтобы релизёр не столько продолжал раздавать старые серии, а смог сконцентрироваться на новых.

Совет для тех, кто не хочет ждать перехеширования:
Создайте ещё одну папку рядом с папкой сериала (рядом, а не в ней!!!). Каждую новую серию после удачной загрузки копируйте в новую папку так чтобы ваша основная папка всегда была пуста. Когда ваш новый торрент предложит вам закачать все файлы, выберете только последнюю. Для сидирования же укажите адрес новой папки.

Как закачать отдельный файл из торрента или докачать ранее пропущенные файлы торрента!

1. Открыть торрент
2. Снять галки с тех файлов торрента, которые мы не хотим закачивать. Оставляем только на нужных нам файлах (файле).
3. Нажать О.К.

В клиенте utorrent

Инструкция

1) Открыть торрент


2) Снять галки с тех файлов торрента, которые мы не хотим закачивать:

* либо вручную, снимая с каждого файла галку( скрин №1)
* либо, нажав кнопку "Снять метки (Select None)", сняв сразу со всех файлов(скрин №2)
№1

№2

Оставляем только на нужных нам файлах (файле).

3)Нажать О.К







Релиз от: Nikolai.Baranov & PIRATIYA







_________________

Легко быть оптимистом, когда судьба не валит с ног тяжелыми ударами, а лишь иногда легонько шлепает по заднице.



реклама партнёра


Вернуться к началу
 Профиль Отправить личное сообщение  
 
   Похожие торренты   Автор   Торрент   Размер 
В этой теме нет новых непрочитанных сообщений. Готэм / Gotham (Дэнни Кэннон, Т.Дж. Скотт, Дермотт Даунс) (Cезон 1, Cерия 1-22 из 22) [2014-2015, Триллер, драма, криминал, WEBDLRip 400р] [MVO] [LostFilm,NewStudio,BaibaKo,HamsterStudio + Subs Rus,ENG]

Враг Нароода

2 | 2

33.8 ГБ

В этой теме нет новых непрочитанных сообщений. Готэм / Gotham (Дэнни Кэннон, Т.Дж. Скотт, Дермотт Даунс) (Cезон 1, Cерия 1-19 из 22) [2014-2015, Триллер, драма, криминал, WEBDLRip-AVC][1080р] [MVO] [NewStudio]

Враг Нароода

8 | 12

45.26 ГБ

В этой теме нет новых непрочитанных сообщений. Готэм / Gotham / 2 сезон 1-22 серия из 22 (Дэнни Кэннон, Т.Дж. Скотт, Пол А. Эдвардс) [2015, триллер, драма, криминал, WEB-DLRip | LostFilm]

Dracon

67 | 258

8.6 ГБ

В этой теме нет новых непрочитанных сообщений. Готэм / Gotham / 2 сезон 1-22 серия из 22 (Дэнни Кэннон, Т.Дж. Скотт, Пол А. Эдвардс) [2015, триллер, драма, криминал, WEB-DLRip | LostFilm]

Dracon

116 | 90

11.81 ГБ

В этой теме нет новых непрочитанных сообщений. Готэм / Gotham [02х01-07 из 22] (Дэнни Кэннон, Т.Дж. Скотт, Пол А. Эдвардс) [2015, триллер, драма, криминал, WEB-DLRip | LostFilm]

Nickolas3435

109 | 263

3.76 ГБ

В этой теме нет новых непрочитанных сообщений. Готэм / Gotham [02х01-11 из 22] (Дэнни Кэннон) [2015, триллер, драма, криминал, WEB-DLRip | HamsterStudio]

Dracon

0 | 19

6.91 ГБ

В этой теме нет новых непрочитанных сообщений. Готэм / Gotham [02х01-11] (Дэнни Кэннон) [2015, Триллер, драма, криминал, WEB-DL 1080p | NewStudio]

Dracon

0 | 0

19.4 ГБ


Начать новую тему Ответить на тему  [ 1 сообщение ] 




Для Мосгорсуда, Роскомнадзора и рекламодателей:: mosgorsud-torrent[собачка]yandex.ru