Торрент файл
скачать торрент магнет ссылка Добавлен: 13 мар 2016, 13:39
Размер: 30.67 ГБ
Сидеров: 2
Личеров: 0
Статус: (salma3)
Автор

СообщениеДобавлено: 13 мар 2016, 13:39 

В сети
Супермодератор
Аватара пользователя
Дата регистрации:
15 фев 2012, 16:44
Возраст: 27
Спасибо: 5143 / 2090
Сообщения: 17501
Кайл XY / Kyle XY /

Год выпуска: 2006-2009
Жанр: Фантастика, драма, детектив
Режиссёр: Эрик Бресс

В ролях: Мэтт Даллас, Маргарит МакИнтайр, Брюс Томас, Эйприл Мэтсон, Жан-Люк Билодо, Крис Оливеро, Кирстен Праут, Джейми Александер, Челан Симмонс, Николас Ли

Описание:
Окружённый тайной, Кайл смотрит на мир глазами новорожденного ребёнка, увидит ли он, что опасности постоянно будут встречаться на его пути. Кайл приходит в себя посреди леса. Он не знает кто он, откуда, как сюда попал. На первой же минуте его новой (новой ли) жизни он встречается лицом к лицу с гремучей змеёй. Он не умеет говорить, есть, пить, спать. Он не умеет ничего. Он - новорожденный. Кроме всего прочего у него нет пупка. Кайл попадает в семью, где его окружают заботой и вниманием, но вокруг столько непонимания и опасностей... девочек.... Его никто не ищет, но за ним следят.

Страна: США
Продолжительность: 43 x ~ 00:43:30
Перевод: Профессиональный (многоголосый закадровый) (AXN Sci-Fi)

Файл
Качество: WEB-DLRip
Формат файла: AVI
Видео кодек: XviD
Аудио кодек: AC3
Видео: 720x400 (1.80:1), 23.976 fps, XviD build 50 ~1727 kbps avg, 0.25 bit/pixel
Аудио 1: 48 kHz, AC3 Dolby Digital, 2/0 (L,R) ch, ~192.00 kbps avg
Аудио 2: 48 kHz, AC3 Dolby Digital, 3/2 (L,C,R,l,r) + LFE ch, ~384.00 kbps avg


WEB-DELRip - CergMark, CerGold

Общее
Полное имя : E:\Сериалы\Kyle XY - WEB-DLRip\Kyle.XY.s01e05. Это не проверка (This Is Not a Test).avi
Формат : AVI
Формат/Информация : Audio Video Interleave
Размер файла : 730 Мбайт
Продолжительность : 44 м.
Общий поток : 2319 Кбит/сек
Программа кодирования : VirtualDubMod 1.5.10.3 (build 2550/release)
Библиотека кодирования : VirtualDubMod build 2550/release

Видео
Идентификатор : 0
Формат : MPEG-4 Visual
Профиль формата : Advanced Simple@L5
Параметр BVOP формата : 2
Параметр QPel формата : Нет
Параметр GMC формата : Без точки перехода
Параметр матрицы формата : Default (MPEG)
Идентификатор кодека : XVID
Идентификатор кодека/Подсказка : XviD
Продолжительность : 44 м.
Битрейт : 1729 Кбит/сек
Ширина : 720 пикселей
Высота : 400 пикселей
Соотношение сторон : 16:9
Частота кадров : 23,976 (23976/1000) кадра/сек
Цветовое пространство : YUV
Субдискретизация насыщенности : 4:2:0
Битовая глубина : 8 бит
Тип развёртки : Прогрессивная
Метод сжатия : С потерями
Бит/(Пиксели*Кадры) : 0.250
Размер потока : 544 Мбайт (75%)
Библиотека кодирования : XviD 1.2.1 (UTC 2008-12-04)

Аудио #1
Идентификатор : 1
Формат : AC-3
Формат/Информация : Audio Coding 3
Расширение режима : CM (complete main)
Параметр Endianness формата : Big
Идентификатор кодека : 2000
Продолжительность : 44 м.
Вид битрейта : Постоянный
Битрейт : 192 Кбит/сек
Каналы : 2 канала
Расположение каналов : Front: L R
Частота : 48,0 КГц
Частота кадров : 31,250 кадров/сек (1536 spf)
Метод сжатия : С потерями
Размер потока : 60,4 Мбайт (8%)
Выравнивание : Разделение по промежуткам
Продолжительность промежутка : 42 мс. (1,00 видеокадр)
Время предзагрузки промежутка : 500 мс.

Аудио #2
Идентификатор : 2
Формат : AC-3
Формат/Информация : Audio Coding 3
Расширение режима : CM (complete main)
Параметр Endianness формата : Big
Идентификатор кодека : 2000
Продолжительность : 44 м.
Вид битрейта : Постоянный
Битрейт : 384 Кбит/сек
Каналы : 6 каналов
Расположение каналов : Front: L C R, Side: L R, LFE
Частота : 48,0 КГц
Частота кадров : 31,250 кадров/сек (1536 spf)
Метод сжатия : С потерями
Размер потока : 121 Мбайт (17%)
Выравнивание : Разделение по промежуткам
Продолжительность промежутка : 42 мс. (1,00 видеокадр)
Время предзагрузки промежутка : 500 мс.




_________________



реклама партнёра


Вернуться к началу
 Профиль Отправить личное сообщение  
 
   Похожие торренты   Автор   Торрент   Размер 
В этой теме нет новых непрочитанных сообщений. Хранилище 13 / Ангар 13 / Warehouse 13 / 5 сезон 1-6 серии из 6 [фантастика, драма, детектив, 2014] WEB-DLRip, Mvo [LostFilm]

salma3

2 | 3

2.91 ГБ

В этой теме нет новых непрочитанных сообщений. Под куполом / Under the Dome / 3 сезон 1-13 серии из 13 [фантастика, триллер, драма, детектив, 2015] WEB-DLRip, Mvo [BaibaKo]

Dracon

101 | 121

6.92 ГБ

В этой теме нет новых непрочитанных сообщений. Леди-детектив мисс Фрайни Фишер / Miss Fisher's Murder Mysteries / 3 сезон 1-8 серии из 8 [Детектив, криминал, драма, 2015] WEB-DLRip, Mvo [ViruseProject]

salma3

250 | 82

4.71 ГБ

В этой теме нет новых непрочитанных сообщений. Мажор (2 сезон: 1-12 серии из 12) [криминал, драма, детектив, 2016] WEB-DLRip-AVC

salma3

740 | 1329

8.61 ГБ

В этой теме нет новых непрочитанных сообщений. Раскопки / Dig / 1 сезон 1-10 серии из 10 [триллер, драма, детектив, 2015] WEB-DLRip-AVC, Mvo

salma3

36 | 12

7.35 ГБ

В этой теме нет новых непрочитанных сообщений. Мoст / Thе Bridgе / 2 сезон 1-6 серии из 10 [триллер, драма, криминал, детектив, 2014] WEB-DLRip, Mvo [Fox]

salma3

4 | 3

3.43 ГБ

В этой теме нет новых непрочитанных сообщений. Слепое пятно / Blindspot / 2 сезон 1-9 серии из 22 [Драма, детектив, 2016] WEB-DLRip, Mvo [LostFilm]

salma3

66 | 192

4.84 ГБ


Начать новую тему Ответить на тему  [ 1 сообщение ] 




Для Мосгорсуда, Роскомнадзора и рекламодателей:: mosgorsud-torrent[собачка]yandex.ru