Торрент файл
скачать торрент магнет ссылка Добавлен: 05 мар 2016, 21:41
Размер: 4.36 ГБ
Сидеров: 194
Личеров: 52
Автор

СообщениеДобавлено: 05 мар 2016, 21:41 

Не в сети
Супермодератор
Аватара пользователя
Дата регистрации:
15 фев 2012, 16:44
Возраст: 27
Спасибо: 5121 / 2089
Сообщения: 17319
Год выпуска: 2016
Жанр: Детектив
Режиссер: Душан Глигоров

В ролях: Мария Белоненко, Елена Оболенская, Александр Вершинин, Мария Большова, Наталья Коренная, Алексей Измайлов, Стас Румянцев, Валерий Новиков, Анфиса Черных, Татьяна Косач-Брындина, Александр Касаткин (II), Дарья Сивова, Сергей Петров (II), Алексей Назаров (IV)

О фильме:
В пятнадцать лет Майя переживает тяжелую психологическую травму: на ее глазах убивают отца. На этой почве у матери Майи развивается мания преследования, и она с дочерью без конца переезжает с места на место. И без того замкнутый подросток, Майя, меняя по нескольку школ за год, окончательно утрачивает контакт со сверстниками. Приехав в новый город, Майя вновь становится свидетелем криминальных событий: на школьном дворе находят окровавленные обрывки одежды, принадлежавшие неформальной «королеве» школы Кристине. В руках Майи случайно оказывается важная улика – мобильный телефон Кристины, который может вывести на след возможного убийцы или похитителя. Первое знакомство с друзьями Кристины показывает, что «королева» была расчетливой интриганкой, которая многим давала повод свести с ней счеты. В то время как полиция не проявляет особого рвения в работе, Майя, мечтающая стать детективом, чтобы разыскать убийцу своего отца, начинает собственное расследование.

Выпущено: Россия, «Всемирные Русские Студии»
Продолжительность: 12 x ~ 00:47:00
Перевод: Не требуется

Файл
Качество: WEB-DLRip
Видео: XviD, ~ 950 Кбит/с, 656x368
Аудио: MP3, 2 ch, 128 Кбит/с

Maja.2015.XviD.WEB-DLRip.by.GeneralFilmSerija.01.avi
Формат : AVI
Формат/Информация : Audio Video Interleave
Размер файла : 372 Мбайт
Продолжительность : 47 м.
Общий поток : 1090 Кбит/сек
Программа кодирования : VirtualDubMod 1.5.10.3 | www.virtualdub-fr.org || (build 2550/release)
Библиотека кодирования : VirtualDubMod build 2550/release
Видео
Идентификатор : 0
Формат : MPEG-4 Visual
Профиль формата : Advanced Simple@L5
Параметр BVOP формата : 1
Параметр QPel формата : Нет
Параметр GMC формата : Без точки перехода
Параметр матрицы формата : Выборочная
Идентификатор кодека : XVID
Идентификатор кодека/Подсказка : XviD
Продолжительность : 47 м.
Битрейт : 953 Кбит/сек
Ширина : 656 пикселей
Высота : 368 пикселей
Соотношение сторон : 16:9
Частота кадров : 25,000 кадров/сек
Цветовое пространство : YUV
Субдискретизация насыщенности : 4:2:0
Битовая глубина : 8 бит
Тип развёртки : Прогрессивная
Метод сжатия : С потерями
Бит/(Пиксели*Кадры) : 0.158
Размер потока : 325 Мбайт (87%)
Библиотека кодирования : XviD 73
Аудио
Идентификатор : 1
Формат : MPEG Audio
Версия формата : Version 1
Профиль формата : Layer 3
Идентификатор кодека : 55
Идентификатор кодека/Подсказка : MP3
Продолжительность : 47 м.
Вид битрейта : Постоянный
Битрейт : 128 Кбит/сек
Каналы : 2 канала
Частота : 44,1 КГц
Метод сжатия : С потерями
Размер потока : 43,6 Мбайт (12%)
Выравнивание : Разделение по промежуткам
Продолжительность промежутка : 40 мс. (1,00 видеокадр)
Время предзагрузки промежутка : 500 мс.
Библиотека кодирования : LAME3.99r
Настройки программы : -m s -V 4 -q 0 -lowpass 17 -b 128






Релиз от:


_________________



реклама партнёра


Вернуться к началу
 Профиль Отправить личное сообщение  
 
   Похожие торренты   Автор   Торрент   Размер 
В этой теме нет новых непрочитанных сообщений. Криминолог [01-02 из 12] [Детектив, 2016] WEB-DLRip

salma3

50 | 2

1.17 ГБ

В этой теме нет новых непрочитанных сообщений. Вселенский заговор [Детектив, 2016] WEB-DLRip

salma3

1470 | 56

1.37 ГБ

В этой теме нет новых непрочитанных сообщений. Шакал [01 из 08] (Детектив, 2016) WEB-DLRip-AVC от ExKinoRay

marya111

0 | 0

5.79 ГБ

В этой теме нет новых непрочитанных сообщений. Коготь из Мавритании [S02] (Детектив, 2016) WEB-DLRip | КПК

marya111

45 | 16

850.29 МБ

В этой теме нет новых непрочитанных сообщений. Шакал [01 из 08] (Детектив, 2016) WEB-DLRip-AVC от ExKinoRay

marya111

0 | 0

2.19 ГБ

В этой теме нет новых непрочитанных сообщений. Дом на холодном ключе [01-04 из 04] [Детектив, мелодрама, 2016] WEB-DLRip

salma3

533 | 133

2.34 ГБ

В этой теме нет новых непрочитанных сообщений. Каменное сердце [01-04 из 04] (Мелодрама, детектив, 2016) WEB-DLRip

marya111

0 | 0

2.31 ГБ


Начать новую тему Ответить на тему  [ 1 сообщение ] 




Для Мосгорсуда, Роскомнадзора и рекламодателей:: mosgorsud-torrent[собачка]yandex.ru