Торрент файл
скачать торрент магнет ссылка Добавлен: 05 мар 2016, 17:02
Размер: 2.77 ГБ
Сидеров: 95
Личеров: 7
Автор

СообщениеДобавлено: 05 мар 2016, 17:02 

Не в сети
Супермодератор
Аватара пользователя
Дата регистрации:
15 фев 2012, 16:44
Возраст: 27
Спасибо: 5139 / 2089
Сообщения: 17411
Печенье с предсказанием (1-2 серии из 2)

Формат: HDTVRip-AVC, MKV, H.264, AC3
Режиссер: Пётр Степин
Жанр: мелодрама
Продолжительность: 2 х ~ 01:30:00
Год выпуска: 2016

В ролях: Евгения Осипова, Сергей Мухин, Татьяна Чердынцева, Светлана Никифорова, Сергей Жбанков, Ирина Нарбекова, Игорь Денисов, Алеся Пуховая, Зоя Антонова

Описание: Случайное предсказание, найденное Ириной в китайском печенье, неожиданно начинает сбываться - ее семейные отношения рушатся, раскрываются неприятные секреты близких людей, а вскоре героиня лишается и своего бизнеса... Сумеет ли Ирина найти выход и простить своих близких, сумеет ли заново построить свою жизнь?

Рейтинг и доп. информация:


Видео: 1024x576 (16:9), 25.000 fps, MPEG4 AVC (х264) , ~ 2000 kbps avg, 0.136 bit/pixel
Аудио: 48 kHz, AC3 Dolby Digital, 2/0 (L,R) ch, ~192.00 kbps avg
Общее
Уникальный идентификатор : 247155858748030836649289822020999903498 (0xB9F07CA76701BB2C8FB0FF9D4ECCF90A)
Полное имя : F:\Печенье с предсказанием.2015.HDTVRip.(AVC).\01.Печенье с предсказанием.2015.HDTVRip.AVC.mkv
Формат : Matroska
Версия формата : Version 2
Размер файла : 1,38 Гбайт
Продолжительность : 1 ч. 29 м.
Общий поток : 2194 Кбит/сек
Дата кодирования : UTC 2016-02-28 05:26:33
Программа кодирования : mkvmerge v6.1.0 ('Old Devil') built on Mar 4 2013 09:10:42
Библиотека кодирования : libebml v1.3.0 + libmatroska v1.4.0

Видео
Идентификатор : 1
Формат : AVC
Формат/Информация : Advanced Video Codec
Профиль формата :
Параметр CABAC формата : Да
Параметр ReFrames формата : 9 кадров
Идентификатор кодека : V_MPEG4/ISO/AVC
Продолжительность : 1 ч. 29 м.
Битрейт : 2000 Кбит/сек
Ширина : 1024 пикселя
Высота : 576 пикселей
Соотношение сторон : 16:9
Режим частоты кадров : Постоянный
Частота кадров : 25,000 кадров/сек
Цветовое пространство : YUV
Субдискретизация насыщенности : 4:2:0
Битовая глубина : 8 бит
Тип развёртки : Прогрессивная
Бит/(Пиксели*Кадры) : 0.136
Размер потока : 1,23 Гбайт (89%)
Библиотека кодирования : x264 core 130 r2273 b3065e6
Настройки программы : cabac=1 / ref=9 / deblock=1:-2:-1 / analyse=0x3:0x133 / me=umh / subme=9 / psy=1 / psy_rd=1.00:0.15 / mixed_ref=1 / me_range=32 / chroma_me=1 / trellis=2 / 8x8dct=1 / cqm=0 / deadzone=21,11 / fast_pskip=0 / chroma_qp_offset=-3 / threads=6 / lookahead_threads=1 / sliced_threads=0 / nr=0 / decimate=1 / interlaced=0 / bluray_compat=0 / constrained_intra=0 / bframes=9 / b_pyramid=2 / b_adapt=2 / b_bias=0 / direct=1 / weightb=1 / open_gop=0 / weightp=2 / keyint=250 / keyint_min=25 / scenecut=40 / intra_refresh=0 / rc=2pass / mbtree=0 / bitrate=2000 / ratetol=1.0 / qcomp=0.60 / qpmin=0 / qpmax=69 / qpstep=4 / cplxblur=20.0 / qblur=0.5 / ip_ratio=1.40 / pb_ratio=1.30 / aq=2:1.00
Default : Да
Forced : Нет
Цветовой диапазон : Limited
Основные цвета : BT.709
Характеристики трансфера : BT.709
Коэффициенты матрицы : BT.709

Аудио
Идентификатор : 2
Формат : AC-3
Формат/Информация : Audio Coding 3
Расширение режима : CM (complete main)
Параметр Endianness формата : Big
Идентификатор кодека : A_AC3
Продолжительность : 1 ч. 29 м.
Вид битрейта : Постоянный
Битрейт : 192 Кбит/сек
Каналы : 2 канала
Расположение каналов : Front: L R
Частота : 48,0 КГц
Метод сжатия : С потерями
Размер потока : 123 Мбайт (9%)
Default : Да
Forced : Нет










_________________



реклама партнёра


Вернуться к началу
 Профиль Отправить личное сообщение  
 
   Похожие торренты   Автор   Торрент   Размер 
В этой теме нет новых непрочитанных сообщений. Печенье с предсказанием (2 серии из 2) [мелодрама, 2016] HDTVRip

salma3

336 | 26

2.73 ГБ

В этой теме нет новых непрочитанных сообщений. За лучшей жизнью (1-2 серии из 2) [мелодрама, 2016] HDTVRip-AVC

salma3

773 | 155

2.73 ГБ

В этой теме нет новых непрочитанных сообщений. Деревенский роман [1-16 серии из 16] [Мелодрама, 2016] HDTVRip

Dracon

145 | 33

8.59 ГБ

В этой теме нет новых непрочитанных сообщений. Деревенский роман [1-16 серии из 16] [Мелодрама, 2016] HDTVRip 720p

Dracon

45 | 26

25.14 ГБ

В этой теме нет новых непрочитанных сообщений. Городская рапсодия (1-2 серии из 2) (Петр Степин) [2016, мелодрама, HDTVRip]

marya111

178 | 21

2.73 ГБ

В этой теме нет новых непрочитанных сообщений. От печали до радости (1-2 серии из 2) (Дмитрий Сорокин) [2016, мелодрама, HDTVRip]

marya111

294 | 45

2.74 ГБ

В этой теме нет новых непрочитанных сообщений. Счастливчик [01 сезон: 01-04 серии из 10] [Фантастика, боевик, 2016] HDTVRip [студия Jaskier]

Dracon

37 | 41

1.84 ГБ


Начать новую тему Ответить на тему  [ 1 сообщение ] 




Для Мосгорсуда, Роскомнадзора и рекламодателей:: mosgorsud-torrent[собачка]yandex.ru