Торрент файл
скачать торрент магнет ссылка Добавлен: 05 мар 2016, 16:59
Размер: 2.27 ГБ
Сидеров: 91
Личеров: 23
Автор

СообщениеДобавлено: 05 мар 2016, 16:59 

Не в сети
Супермодератор
Аватара пользователя
Дата регистрации:
15 фев 2012, 16:44
Возраст: 27
Спасибо: 5135 / 2089
Сообщения: 17405
Формат: WEB-DLRip-AVC, MKV, H.264, AC3
Режиссер: Наталья Хлопецкая
Жанр: детектив, триллер
Продолжительность: 4 x ~ 00:45:00
Год выпуска: 2016

В ролях: Александра Тюфтей, Сергей Жарков, Илья Древнов, Сергей Галахов, Сергей Петров (II), Сергей Кизас, Елена Любимова, Ксения Радченко (II), Вера Воронкова, Владимир Колида

Описание: Как часто в криминальной хронике встречаются сообщения, что серийного маньяка пытались поймать «на живца»? Теперь представьте, как юная девушка, работающая такой «приманкой», неожиданно пропадает из зоны контроля правоохранительных органов и остаётся один на один с безжалостным убийцей.

Рейтинг и доп. информация:


Видео: 1024x576 (16:9), 25.000 fps, MPEG4 AVC (х264) , ~ 1600 kbps avg, 0.109 bit/pixel
Аудио: 48 kHz, AC3 Dolby Digital, 2/0 (L,R) ch, ~192.00 kbps avg
Общее
Уникальный идентификатор : 203183635678093249434223282412158172439 (0x98DBBEAC461C61F6BAC671B7BB6FBD17)
Полное имя : C:\Коготь из Мавритании.2015.WEB-DLRip.(AVC).\01.Коготь из Мавритании.2015.WEB-DLRip.(AVC).mkv
Формат : Matroska
Версия формата : Version 2
Размер файла : 579 Мбайт
Продолжительность : 45 м.
Общий поток : 1794 Кбит/сек
Дата кодирования : UTC 2016-03-03 02:41:16
Программа кодирования : mkvmerge v6.1.0 ('Old Devil') built on Mar 4 2013 09:10:42
Библиотека кодирования : libebml v1.3.0 + libmatroska v1.4.0

Видео
Идентификатор : 1
Формат : AVC
Формат/Информация : Advanced Video Codec
Профиль формата :
Параметр CABAC формата : Да
Параметр ReFrames формата : 9 кадров
Идентификатор кодека : V_MPEG4/ISO/AVC
Продолжительность : 45 м.
Битрейт : 1600 Кбит/сек
Ширина : 1024 пикселя
Высота : 576 пикселей
Соотношение сторон : 16:9
Режим частоты кадров : Постоянный
Частота кадров : 25,000 кадров/сек
Цветовое пространство : YUV
Субдискретизация насыщенности : 4:2:0
Битовая глубина : 8 бит
Тип развёртки : Прогрессивная
Бит/(Пиксели*Кадры) : 0.109
Размер потока : 505 Мбайт (87%)
Библиотека кодирования : x264 core 130 r2273 b3065e6
Настройки программы : cabac=1 / ref=9 / deblock=1:-2:-1 / analyse=0x3:0x133 / me=umh / subme=9 / psy=1 / psy_rd=1.00:0.15 / mixed_ref=1 / me_range=32 / chroma_me=1 / trellis=2 / 8x8dct=1 / cqm=0 / deadzone=21,11 / fast_pskip=0 / chroma_qp_offset=-3 / threads=6 / lookahead_threads=1 / sliced_threads=0 / nr=0 / decimate=1 / interlaced=0 / bluray_compat=0 / constrained_intra=0 / bframes=9 / b_pyramid=2 / b_adapt=2 / b_bias=0 / direct=1 / weightb=1 / open_gop=0 / weightp=2 / keyint=250 / keyint_min=25 / scenecut=40 / intra_refresh=0 / rc=2pass / mbtree=0 / bitrate=1600 / ratetol=1.0 / qcomp=0.60 / qpmin=0 / qpmax=69 / qpstep=4 / cplxblur=20.0 / qblur=0.5 / ip_ratio=1.40 / pb_ratio=1.30 / aq=2:1.00
Default : Да
Forced : Нет
Цветовой диапазон : Limited
Основные цвета : BT.709
Характеристики трансфера : BT.709
Коэффициенты матрицы : BT.709

Аудио
Идентификатор : 2
Формат : AC-3
Формат/Информация : Audio Coding 3
Расширение режима : CM (complete main)
Параметр Endianness формата : Big
Идентификатор кодека : A_AC3
Продолжительность : 45 м.
Вид битрейта : Постоянный
Битрейт : 192 Кбит/сек
Каналы : 2 канала
Расположение каналов : Front: L R
Частота : 44,1 КГц
Метод сжатия : С потерями
Размер потока : 61,9 Мбайт (11%)
Default : Да
Forced : Нет










_________________



реклама партнёра


Вернуться к началу
 Профиль Отправить личное сообщение  
 
   Похожие торренты   Автор   Торрент   Размер 
В этой теме нет новых непрочитанных сообщений. Коготь из Мавритании 2 (1-4 серии из 4) [детектив, 2016] WEB-DLRip-AVC

salma3

442 | 90

2.36 ГБ

В этой теме нет новых непрочитанных сообщений. Коготь из Мавритании [S02] (Детектив, 2016) WEB-DLRip | КПК

marya111

45 | 16

850.29 МБ

В этой теме нет новых непрочитанных сообщений. Коготь из Мавритании [Серия 1-4 из 4] [Детектив, триллер, 2016] SATRip

Dracon

310 | 52

2.44 ГБ

В этой теме нет новых непрочитанных сообщений. Обвиняемая / Вина / Guilt / 1 сезон 1-3 серии из 13 [триллер, драма, детектив, 2016] WEB-DLRip, Mvo [NewStudio]

salma3

19 | 12

1.59 ГБ

В этой теме нет новых непрочитанных сообщений. Слепая зона / Blindspot / 1 сезон 1-23 серии из 23 [триллер, драма, детектив, 2015-2016] WEB-DLRip-AVC, Mvo [LostFilm]

salma3

72 | 33

16.35 ГБ

В этой теме нет новых непрочитанных сообщений. База Куантико / Quantico / 2 сезон 1-08 серии из 22 [триллер, драма, криминал, детектив, 2016] WEB-DLRip, Mvo [NewStudio]

salma3

19 | 58

3.91 ГБ

В этой теме нет новых непрочитанных сообщений. Нераскрытый талант (1-4 серии из 4) [детектив, мелодрама, 2016] WEB-DLRip

salma3

1580 | 419

2.34 ГБ


Начать новую тему Ответить на тему  [ 1 сообщение ] 




Для Мосгорсуда, Роскомнадзора и рекламодателей:: mosgorsud-torrent[собачка]yandex.ru