Торрент файл
скачать торрент магнет ссылка Добавлен: 17 янв 2016, 15:21
Размер: 92.36 ГБ
Сидеров: 11
Личеров: 14
Автор

СообщениеДобавлено: 17 янв 2016, 15:21 

Не в сети
Супермодератор
Аватара пользователя
Дата регистрации:
15 фев 2012, 16:44
Возраст: 27
Спасибо: 5121 / 2089
Сообщения: 17342
Год выпуска: 2010-2011
Жанр: фантастика, драма, комедия
Режиссёр: Майк Рол, Майкл Робисан, Мэттью Хатингс и др.
В ролях: Колин Фергюсон / Colin Ferguson (Джек Картер), Салли Ричардсон-Уитфилд / Salli Richardson-Whitfield (Элисон Блейк), Эрика Серра / Erica Cerra (Джо Лупо), Нил Грэйстон / Neil Grayston (Дуглас Фарго), Джо Мортон / Joe Morton (Генри Дикон), Крис Готье / Chris Gauthier (Винсент), Джордан Хинсон / Jordan Hinson (Зои Картер), Найолл Мэттер / Niall Matter (Зейн Донован), Эд Куинн / Ed Quinn (Нэйтан Старк)
Описание: Эврика — высокотехнологичный город в штате Орегон, населенный блестящими учеными, работающими над новыми научными исследованиями. Город управляется корпорацией под названием Global Dynamics, которая находится под контролем Департамента обороны США. Существование города держится в секрете.
Маршал США Джек Картер натыкается на Эврику при транспортировке своей дочери — малолетней преступницы — в Лос-Анджелес к её матери. И так как предыдущий шериф стал калекой, то на эту должность назначают Картера. Несмотря на отсутствие гениальности, как у других жителей города, способность Джека Картера находить общий язык, его простые, но эффективные идеи, практичность и неизменная преданность своей работе постоянно спасают Эврику, а иногда и весь мир, от одного бедствия за другим.

Эпизод 1. Пропавшие / Lost
Эпизод 2. Все по-настоящему / The Real Thing
Эпизод 3. Выход силой / Force Quit
Эпизод 4. Дружественный огонь / Friendly Fire
Эпизод 5. Джек на все руки / Jack of All Trades
Эпизод 6. Худший вариант / Worst Case Scenario
Эпизод 7. Из машины / Ex Machina
Эпизод 8. В бездне / In Too Deep
Эпизод 9. Умник Картер / Smarter Carter
Эпизод 10. Молодожёны / The Honeymooners
Эпизод 11. Зеркало, зеркало / Mirror, Mirror
Эпизод 12. Не верь глазам своим / Double-Take
Эпизод 13. Новый день / Just Another Day...




Страна: США, NBC Universal Television, Universal Cable Productions
Продолжительность: по ~ 00:45:00
Перевод:
- Профессиональный (многоголосый, закадровый) [LostFilm]
- Профессиональный (многоголосый, закадровый) [т/к Sony Sci-Fi]

• Огромное спасибо за помощь в получении доступа к блюрей дискам сезонов 1-5: несравненному Flest
За дорожку LostFilm'a спасибо: Nez
За дорожку т/к Sony Sci-Fi спасибо: veryserg
Синхронизация дорожек LostFilm'a и т/к Sony Sci-Fi: Stiles (RG SerialS)
Сохранены оригинальные чаптеры как на Blu-Ray

Файл:
Формат: MKV
Видео кодек: MPEG-4 AVC
Аудио кодек: AC3, DTS-HD MA
Свойства видео: 1920x1080 (16:9), 23.976 fps, ~23000-27000 kbps, 0.48-0.57 bits/pixel
Аудио #1 : 48 kHz, AC3, 3/2 (L,C,R,l,r) + LFE ch, ~384.00 kbps avg |Профессиональный (многоголосый, закадровый) [LostFilm]
Аудио #2 : 48 kHz, AC3, 2 (L,R) ch, ~192.00 kbps avg |Профессиональный (многоголосый, закадровый) [т/к Sony Sci-Fi]
Аудио #3 : 48 kHz, DTS-HD MA, 3/2 (L,C,R,l,r) + LFE ch, ~2198.00 kbps avg (DTS Core: 5.1 / 48 kHz / 1509 kbps / 16-bit) |Оригинал|
Аудио #4 : 48 kHz, DTS-HD MA, 3/2 (L,C,R,l,r) + LFE ch, ~2198.00 kbps avg (DTS Core: 5.1 / 48 kHz / 1509 kbps / 16-bit) |Commentary| (только для 13-го эпизода)
General
Unique ID : 198448159818988429956751776899431240998 (0x954BB9AFE873FBADBC6618AAF8819526)
Complete name : F:eurekaEureka S05 BDRemux 1080p 2xRus Eng Subs by Stiles RG SerialSEureka S05E01 Lost BDRemux 1080p 2xRus Eng Subs by Stiles RG SerialS.mkv
Format : Matroska
Format version : Version 4 / Version 2
File size : 7.14 GiB
Duration : 43mn 20s
Overall bit rate mode : Variable
Overall bit rate : 23.6 Mbps
Encoded date : UTC 2016-01-16 06:50:47
Writing application : mkvmerge v7.9.0 ('Birds') 64bit
Writing library : libebml v1.3.1 + libmatroska v1.4.2
Video
ID : 1
Format : AVC
Format/Info : Advanced Video Codec
Format profile : High@L4.1
Format settings, CABAC : Yes
Format settings, ReFrames : 4 frames
Codec ID : V_MPEG4/ISO/AVC
Duration : 43mn 20s
Bit rate mode : Variable
Maximum bit rate : 30.0 Mbps
Width : 1 920 pixels
Height : 1 080 pixels
Display aspect ratio : 16:9
Frame rate mode : Constant
Frame rate : 23.976 fps
Standard : NTSC
Color space : YUV
Chroma subsampling : 4:2:0
Bit depth : 8 bits
Scan type : Progressive
Language : English
Default : Yes
Forced : No
Color range : Limited
Color primaries : BT.709
Transfer characteristics : BT.709
Matrix coefficients : BT.709
Audio #1
ID : 2
Format : AC-3
Format/Info : Audio Coding 3
Mode extension : CM (complete main)
Format settings, Endianness : Big
Codec ID : A_AC3
Duration : 43mn 20s
Bit rate mode : Constant
Bit rate : 384 Kbps
Channel(s) : 6 channels
Channel positions : Front: L C R, Side: L R, LFE
Sampling rate : 48.0 KHz
Compression mode : Lossy
Stream size : 119 MiB (2%)
Title : LostFilm
Language : Russian
Default : Yes
Forced : No
Audio #2
ID : 3
Format : AC-3
Format/Info : Audio Coding 3
Mode extension : CM (complete main)
Format settings, Endianness : Big
Codec ID : A_AC3
Duration : 43mn 20s
Bit rate mode : Constant
Bit rate : 192 Kbps
Channel(s) : 2 channels
Channel positions : Front: L R
Sampling rate : 48.0 KHz
Compression mode : Lossy
Stream size : 59.5 MiB (1%)
Title : Sci-Fi
Language : Russian
Default : No
Forced : No
Audio #3
ID : 4
Format : DTS
Format/Info : Digital Theater Systems
Format profile : MA / Core
Mode : 16
Format settings, Endianness : Big
Codec ID : A_DTS
Duration : 43mn 20s
Bit rate mode : Variable
Bit rate : Unknown / 1 509 Kbps
Channel(s) : 6 channels
Channel positions : Front: L C R, Side: L R, LFE
Sampling rate : 48.0 KHz
Bit depth : 16 bits
Compression mode : Lossless / Lossy
Language : English
Default : No
Forced : No
Text
ID : 5
Format : PGS
Muxing mode : zlib
Codec ID : S_HDMV/PGS
Codec ID/Info : Picture based subtitle format used on BDs/HD-DVDs
Language : English
Default : No
Forced : No
Menu
00:00:00.000
00:00:57.891
00:15:50.950
00:22:46.365
00:32:02.921
00:42:49.233
00:43:20.556


Релиз от: Stiles


_________________



реклама партнёра


Вернуться к началу
 Профиль Отправить личное сообщение  
 
   Похожие торренты   Автор   Торрент   Размер 
В этой теме нет новых непрочитанных сообщений. Эврика / Eureka [S04] [фантастика, драма, комедия, 2010-2011] BDRemux 1080р, Mvo [LostFilm, Sony Sci-Fi]

salma3

10 | 17

185.52 ГБ

В этой теме нет новых непрочитанных сообщений. Эврика / Eureka [S02] [фантастика, драма, комедия, 2007] BDRemux 1080р, Avo+Mvo [LostFilm, СТС]

salma3

13 | 25

100.05 ГБ

В этой теме нет новых непрочитанных сообщений. Эврика / Eureka [S01] [фантастика, драма, комедия, 2006] BDRemux 1080р, Avo+Mvo [LostFilm, СТС]

salma3

25 | 55

94.07 ГБ

В этой теме нет новых непрочитанных сообщений. Эврика / Eureka [S03] [фантастика, драма, комедия, 2008-2009] BDRemux 1080р, Avo+Mvo [LostFilm, СТС]

salma3

5 | 20

138.91 ГБ

В этой теме нет новых непрочитанных сообщений. Хранилище 13 / Warehouse 13 [S05] [фантастика, драма, детектив, 2014] WEB-DL 1080р, Mvo [LostFilm]

salma3

8 | 11

9.05 ГБ

В этой теме нет новых непрочитанных сообщений. Сотня / The 100 / The Hundred [S02] (Бхарат Наллури, П.Дж. Пеше, Милан Чейлов) [2014, Драма, фантастика, WEB-DL 1080р | LostFilm]

Nickolas3435

108 | 186

28.54 ГБ

В этой теме нет новых непрочитанных сообщений. Провинциалка / Hick [Драма, комедия, 2011] BDRemux 1080р, Mvo+Sub

salma3

10 | 2

14.78 ГБ


Начать новую тему Ответить на тему  [ 1 сообщение ] 




Для Мосгорсуда, Роскомнадзора и рекламодателей:: mosgorsud-torrent[собачка]yandex.ru