Торрент файл
скачать торрент магнет ссылка Добавлен: 04 мар 2016, 20:49
Размер: 20.86 ГБ
Сидеров: 0
Личеров: 1
Автор

СообщениеДобавлено: 11 янв 2016, 16:42 

Не в сети
Аватара пользователя
Дата регистрации:
09 авг 2014, 12:07
Спасибо: 51 / 1
Сообщения: 178
Откуда: КРАСНОГОРСК
Хроники Шаннары / The Shannara Chronicles Сезон 1, Серия 1-10 из 10


Год выпуска: 2016
Выпущено: США,MTV, Farah Films, Music Television (MTV), Sonar Entertainment
Жанр: Фантастика, фэнтези, приключения, экранизация
Продолжительность: 00:41:00
Сезон:1
Серия: 1-10
Количество серий в сезоне: 10

Озвучка 1: Профессиональный многоголосый - NewStudio

Озвучка 2: Профессиональный многоголосый - AlexFilm

Озвучка 3: Профессиональный многоголосый -LostFilm

Озвучка 4: Профессиональный многоголосый - Jaskier

Озвучка 5: Профессиональный многоголосый - Английский - Оригинал

Субтитры: : Английские






Режиссер: Брэд Тёрнер, Джонатан Либесман, Джеймс Маршалл

В ролях: Поппи Дрейтон, Остин Роберт Батлер, Ивана Бакеро, Ману Беннетт, Эмилия Бёрнс, Аарон Якубенко, Джон Рис-Дэвис, Маркус Ванко, Брук Уильямс, Дэниэл МакФерсон


События сериала происходят в далёком будущем. Войны разделили Северную Америку на 4 части. На какой-то из них обитают эльфы, на иной — люди, на третьей — тролли и на четвёртой — дворфы.

Основными персонажами сериала окажутся отпрыски древнего рода эльфов — Шаннара. Именно от них будет зависеть будущая судьба планеты…





Качество :WEB-DLRip 1080p
Формат: MKV
Видео кодек: H264
Видео: 5982Кбит/сек,1920х1080(16.9),в 25.000кадр/сек,AVC(PAL) (High@L4)(CABAC/3Ref Frames)
Аудио Кодек:AC3
Аудио #1:AC3 , 384 Kbps, 48.0 KHz, 6 ch- -NewStudio
Аудио #2: AC3, 384 Kbps, 48.0 KHz,6 ch - - English

Звуковая дорожка сделана путем наложения чистого голоса озвучивателей на центральный канал оригинальной дорожки. Качество идентично звуковой дорожке.


01.-02. Избранный / Chosen
03. Ярость / Fury
04. Перебежчик / Changeling
05. Жнец / Reaper
06. Пикон / Pykon
07. Разлом / Breakline
08. Утопия / Utopia
09. Убежище / Safehold
10 Элькрис / Ellcrys



Общее
Уникальный идентификатор : 224059340049706522114130512616525009751 (0xA890425D098F5E03AE5E356A69761357)
Полное имя : E:\К ИНО\Ф Э Н Т Е З И\Хроники Шаннары\The_Shannara_Chronicles_2016_S01_[NewStudio]_Н264_DD5.1_N.B_WEB-DLRip_1080p_Rus_Eng\The_Shannara_Chronicles_2016_S01E01-E02_[NewStudio]_Н264_DD5.1_N.B_WEB-DLRip_1080p_Rus_Eng.mkv
Формат : Matroska
Версия формата : Version 4 / Version 2
Размер файла : 3,86 Гбайт
Продолжительность : 1 ч. 21 м.
Режим общего битрейта : Переменный
Общий поток : 6752 Кбит/сек
Название фильма : The_Shannara_Chronicles_2016_S01E01-E02_[NewStudio]_Н264_DD5.1_N.B_WEB-DLRip_1080p_Rus_Eng
Дата кодирования : UTC 2016-01-10 08:48:59
Программа кодирования : mkvmerge v8.7.0 ('All of the above') 64bit
Библиотека кодирования : libebml v1.3.3 + libmatroska v1.4.4

Видео
Идентификатор : 1
Формат : AVC
Формат/Информация : Advanced Video Codec
Профиль формата : High@L4
Параметр CABAC формата : Да
Параметр ReFrames формата : 3 кадра
Идентификатор кодека : V_MPEG4/ISO/AVC
Продолжительность : 1 ч. 21 м.
Вид битрейта : Переменный
Битрейт : 5982 Кбит/сек
Максимальный битрейт : 6142 Кбит/сек
Ширина : 1920 пикселей
Высота : 1080 пикселей
Соотношение сторон : 16:9
Режим частоты кадров : Постоянный
Частота кадров : 25,000 кадров/сек
Стандарт вещания : PAL
Цветовое пространство : YUV
Субдискретизация насыщенности : 4:2:0
Битовая глубина : 8 бит
Тип развёртки : Прогрессивная
Бит/(Пиксели*Кадры) : 0.115
Размер потока : 3,42 Гбайт (89%)
Язык : English
Default : Да
Forced : Нет
Цветовой диапазон : Full
Основные цвета : BT.709
Характеристики трансфера : BT.709
Коэффициенты матрицы : BT.709

Аудио #1
Идентификатор : 2
Формат : AC-3
Формат/Информация : Audio Coding 3
Расширение режима : CM (complete main)
Параметр Endianness формата : Big
Идентификатор кодека : A_AC3
Продолжительность : 1 ч. 21 м.
Вид битрейта : Постоянный
Битрейт : 384 Кбит/сек
Каналы : 6 каналов
Расположение каналов : Front: L C R, Side: L R, LFE
Частота : 48,0 КГц
Частота кадров : 31,250 кадров/сек (1536 spf)
Метод сжатия : С потерями
Размер потока : 225 Мбайт (6%)
Default : Да
Forced : Нет

Аудио #2
Идентификатор : 3
Формат : AC-3
Формат/Информация : Audio Coding 3
Расширение режима : CM (complete main)
Параметр Endianness формата : Big
Идентификатор кодека : A_AC3
Продолжительность : 1 ч. 21 м.
Вид битрейта : Постоянный
Битрейт : 384 Кбит/сек
Каналы : 6 каналов
Расположение каналов : Front: L C R, Side: L R, LFE
Частота : 48,0 КГц
Частота кадров : 31,250 кадров/сек (1536 spf)
Метод сжатия : С потерями
Размер потока : 225 Мбайт (6%)
Default : Нет
Forced : Нет










Внимание! Раздача пополняется по мере выхода новых серий!


Раздача ведётся путём добавления новых серий; при каждом добавлении создётся новый торрент.
Чтобы начать докачку новой серии, пользователям необходимо сделать следующее:
1. остановить скачивание,
2. удалить старый торрент у себя из клиента (старые серии удалять не надо),
3. скачать новый торрент и запустить его у себя в клиенте вместо старого, при этом указать клиенту путь в старую папку, куда и должно происходить скачивание новых серий.

Ваш клиент при этом должен произвести хеширование (проверку) старой папки (если не производит сам - помогите ему сделать это), и будет докачивать только те серии которых у вас ещё нет. Старые серии при этом не удаляются, а продолжают раздаваться!

Eсли вы уже удалили старые серии, то предотвратить повторную закачку старых серий можно, отжав галочку в соответсвующих местах при запуске нового торрента. По возможности, желательно не удалять старые серии как можно дольше, чтобы релизёр не столько продолжал раздавать старые серии, а смог сконцентрироваться на новых.

Совет для тех, кто не хочет ждать перехеширования:
Создайте ещё одну папку рядом с папкой сериала (рядом, а не в ней!!!). Каждую новую серию после удачной загрузки копируйте в новую папку так чтобы ваша основная папка всегда была пуста. Когда ваш новый торрент предложит вам закачать все файлы, выберете только последнюю. Для сидирования же укажите адрес новой папки.

Как закачать отдельный файл из торрента или докачать ранее пропущенные файлы торрента!

1. Открыть торрент
2. Снять галки с тех файлов торрента, которые мы не хотим закачивать. Оставляем только на нужных нам файлах (файле).
3. Нажать О.К.

В клиенте utorrent

Инструкция

1) Открыть торрент


2) Снять галки с тех файлов торрента, которые мы не хотим закачивать:

* либо вручную, снимая с каждого файла галку( скрин №1)
* либо, нажав кнопку "Снять метки (Select None)", сняв сразу со всех файлов(скрин №2)
№1

№2

Оставляем только на нужных нам файлах (файле).

3)Нажать О.К








Внимание!!! 04.03. 2016. РАЗДАЧА ОБНОВЛЕНА.ОБНОВИТЕ ТОРЕНТ ФАЙЛ.ПРИЯТНОГО ПРОСМОТРА . ФИНАЛ СЕЗОНА.


Релиз от: Nikolai.Baranov & PIRATIYA







_________________

Легко быть оптимистом, когда судьба не валит с ног тяжелыми ударами, а лишь иногда легонько шлепает по заднице.



реклама партнёра


Вернуться к началу
 Профиль Отправить личное сообщение  
 
   Похожие торренты   Автор   Торрент   Размер 
В этой теме нет новых непрочитанных сообщений. Хроники Шаннары / The Shannara Chronicles / 1 сезон 1-10 серии из 10 (Брэд Тернер, Джонатан Либесман, Джеймс Маршалл) [фантастика, фэнтези, приключения, 2016] WEB-DLRip [NewStudio]

Dracon

94 | 54

5.21 ГБ

В этой теме нет новых непрочитанных сообщений. Хроники Шаннары / The Shannara Chronicles / 1 сезон 1-10 серии из 10 (Брэд Тернер, Джонатан Либесман, Джеймс Маршалл) [фантастика, фэнтези, приключения, 2016] WEB-DLRip [BaibaKo]

Dracon

274 | 522

5.49 ГБ

В этой теме нет новых непрочитанных сообщений. Хроники Шаннары / The Shannara Chronicles [01х01-04 из 10] (Брэд Тернер, Джонатан Либесман, Джеймс Маршалл) [2016, фантастика, фэнтези, приключения, WEB-DLRip | HamsterStudio]

Nickolas3434

860 | 564

1.56 ГБ

В этой теме нет новых непрочитанных сообщений. Хроники Шаннары / The Shannara Chronicles [1 сезон: 1-7 серии из 10] [Фантастика, фэнтези, приключения, 2016] WEB-DLRip (1080p), Mvo [NewStudio]

Dracon

8 | 14

11.01 ГБ

В этой теме нет новых непрочитанных сообщений. Хроники Шаннары / The Shannara Chronicles [1 сезон: 1-6 серии из 10] [Фантастика, фэнтези, приключения, 2016] WEB-DLRip (1080p) [LostFilm]

Dracon

443 | 535

9.46 ГБ

В этой теме нет новых непрочитанных сообщений. Лемони Сникет: 33 несчастья / A Series of Unfortunate Events (Сезон 1, Серия 1-8 из 8) ( Дэниэл Хэндлер, Эмили Фокс) [2017 , Драма, приключения, семейный,WEB-DLRip 1080p] [ AlexFilm , LostFilm , Jaskier , NewStudio , English] + [Subs Rus,EN

Враг Нароода

0 | 0

34.09 ГБ

В этой теме нет новых непрочитанных сообщений. Лемони Сникет: 33 несчастья / A Series of Unfortunate Events (Сезон 1, Серия 1-8 из 8) ( Дэниэл Хэндлер, Эмили Фокс) [2017 , Драма, приключения, семейный, WEB-DLRip 720p] [ AlexFilm , LostFilm , Jaskier , NewStudio , English] + [Subs Rus

Враг Нароода

0 | 0

17.29 ГБ


Начать новую тему Ответить на тему  [ 1 сообщение ] 




Для Мосгорсуда, Роскомнадзора и рекламодателей:: mosgorsud-torrent[собачка]yandex.ru