Торрент файл
скачать торрент магнет ссылка Добавлен: 26 дек 2015, 12:34
Размер: 85.98 ГБ
Сидеров: 65
Личеров: 125
Автор

СообщениеДобавлено: 26 дек 2015, 12:34 

Не в сети
Зам. Админа
Аватара пользователя
Дата регистрации:
02 дек 2010, 12:39
Спасибо: 12623 / 214
Сообщения: 28012


Информация о фильме
Оригинальное название: Другой майор Соколов
Год выхода: 2015
Жанр: Криминал, боевик
Режиссер: Карен Захаров
В ролях: Вадим Андреев, Константин Соловьёв, Анастасия Панина, Александр Наумов, Филипп Бледный, Денис Варенов, Олег Клёнов, Андрей Ерофеев, Марина Волкова, Антон Степанов, Вероника Лысакова, Александра Артемьева, Алёна Чехова, Александр Сергеев, Юрий Маслак, Наталья Тищенко, Виктор Пилипко, Иван Непомнящий, Полина Кутихина, Евгений Венедиктов, Анатолий Завьялов, Виктория Адельфина, Евгений Кравченко

О фильме:
В центре нового сериала «Другой майор Соколов» – работа специальной службы – Управления собственной безопасности, которое расследует преступления, совершаемые работниками правоохранительных органов. Лучшие сотрудники управления – Влад Соколов, Андрей Гордеев, Марина Ветрова и Олег Ершов служат в группе под руководством полковника Ладыгина. Казалось бы, их служба не отличается от службы обычных полицейских: оперативная разработка, прослушка, слежка, опрос свидетелей, арест преступников…

Страна: Россия
Студия: Кинокомпания "Пирамида" по заказу НТВ
Продолжительность: 32 х ~ 00:45:00
Перевод: Не требуется

Файл
Кодек: MPEG-4 AVC
Качество: HDTV 1080i
Видео: 1920х1080 (16:9), 25 fps, AVC MPEG-4 (x264), High@L4.0 ~ 8500 kbps avg, 0.152 bit/pixel
Звук: 48 kHz, MP2, 2 ch, 192 kbps avg

Семпл

Общее
Идентификатор : 1 (0x1)
Полное имя : F:Фильмы торрентыDrugoy.mayor.Sokolov.2015.(1080i).MediaClubDrugoy.mayor.Sokolov.(01.seriya).2015.(1080i).MediaClub.ts
Формат : MPEG-TS
Размер файла : 2,70 Гбайт
Продолжительность : 45 м.
Режим общего битрейта : Переменный
Общий поток : 8478 Кбит/сек

Видео
Идентификатор : 901 (0x385)
Идентификатор меню : 90 (0x5A)
Формат : AVC
Формат/Информация : Advanced Video Codec
Профиль формата : Main@L4.0
Параметр CABAC формата : Да
Параметр ReFrames формата : 2 кадра
Идентификатор кодека : 27
Продолжительность : 45 м.
Битрейт : 7865 Кбит/сек
Ширина : 1920 пикселей
Высота : 1080 пикселей
Соотношение сторон : 16:9
Частота кадров : 25,000 кадров/сек
Цветовое пространство : YUV
Субдискретизация насыщенности : 4:2:0
Битовая глубина : 8 бит
Тип развёртки : MBAFF
Бит/(Пиксели*Кадры) : 0.152
Размер потока : 2,51 Гбайт (93%)
Основные цвета : BT.709
Характеристики трансфера : BT.709
Коэффициенты матрицы : BT.709

Аудио
Идентификатор : 902 (0x386)
Идентификатор меню : 90 (0x5A)
Формат : MPEG Audio
Версия формата : Version 1
Профиль формата : Layer 2
Идентификатор кодека : 3
Продолжительность : 45 м.
Вид битрейта : Постоянный
Битрейт : 192 Кбит/сек
Каналы : 2 канала
Частота : 48,0 КГц
Метод сжатия : С потерями
Размер потока : 62,7 Мбайт (2%)
Язык : Russian








реклама партнёра


Вернуться к началу
 Профиль  
 
   Похожие торренты   Автор   Торрент   Размер 
В этой теме нет новых непрочитанных сообщений. Другой майор Соколов [Серия 1-32 из 32] (Карен Захаров) [Криминал, 2015] SATRip

Dracon

202 | 113

18.87 ГБ

В этой теме нет новых непрочитанных сообщений. Другой майор Соколов [01-32 из 32] (Карен Захаров) [Криминал, 2015] HDTVRip 720p

Dracon

185 | 171

49.78 ГБ

В этой теме нет новых непрочитанных сообщений. Донбасс в огне (Россия) [Документальный, криминал, 2015] HDTV 1080i

Dracon

50 | 9

4.05 ГБ

В этой теме нет новых непрочитанных сообщений. Неподкупный [01-16 из 16] (Александр Даруга, Марат Ким) [Криминал, 2015] HDTV 1080i

Dracon

290 | 96

44.89 ГБ

В этой теме нет новых непрочитанных сообщений. Игра с огнём [01-04 из 04] (Наталия Бучнева) [Мелодрама, криминал, 2015] HDTV 1080i

Dracon

212 | 38

8.2 ГБ

В этой теме нет новых непрочитанных сообщений. Высокие ставки [S01] (Богдан Дробязко) [Драма, криминал, 2015] HDTV 1080i

Dracon

276 | 277

60.21 ГБ

В этой теме нет новых непрочитанных сообщений. Уголовное дело [01-04 из 04] (Наталия Средникова) [Криминал, Детектив, 2015] HDTV 1080i

Dracon

52 | 10

9.8 ГБ


Начать новую тему Ответить на тему  [ 1 сообщение ] 




Для Мосгорсуда, Роскомнадзора и рекламодателей:: mosgorsud-torrent[собачка]yandex.ru