Торрент файл
скачать торрент магнет ссылка Добавлен: 02 дек 2015, 23:41
Размер: 8.18 ГБ
Сидеров: 18
Личеров: 5
Автор

СообщениеДобавлено: 02 дек 2015, 23:41 

Не в сети
Супермодератор
Аватара пользователя
Дата регистрации:
15 фев 2012, 16:44
Возраст: 27
Спасибо: 5139 / 2089
Сообщения: 17432
Год выпуска : 2000
Страна : США
Жанр : фантастика, боевик, драма

Продолжительность: 00:41:00
Перевод : Авторский (одноголосый закадровый) - [Андрей Дольский]
Русские субтитры : Нет
Режиссёр : Дэвид Ливингстон, Чарли Пичерни, Скотт Лофлин


В ролях: : Джонатан ЛаПалья, Жустина Вэйл, Дон Франклин, Алан Скарф, Ник Сирси, Норман Ллойд, Сэм Уиппл, Чарли Лэнг, Джером Батлер, Кевин Кристи...


Описание:
Тайный отдел Агентства Национальной Безопасности США (NSA) разработал технологию по перемещению во времени, основанную на инопланетных технологиях найденных в Розвелле, Нью-Мексико. Сфера может осуществить «шаг назад» только на семь дней из-за ограничений инопланетного реактора и топлива. Так как количество топлива ограничено, пользование Сферой разрешается только для случаев связанных с «национальной безопасностью». Проект находится на тайной военной базе в пустыне Невады.



Качество:TVRip
Формат:AVI
Видео кодек:XviD
Аудио кодек:MP3
Видео:XviD, 480x352 (1.36:1) 29.970 fps, ~1035 kbps avg, 0.20 bit/pixel
Аудио 1: Russian MPEG Layer 3, 48 kHz, 2 ch, ~120.60 kbps avg
Аудио 2:English MPEG Layer 3, 48 kHz, 2 ch, ~120.60 kbps avg






Общее
Полное имя : D:Новая папкаСемь дней 3 сезонSeven.Days.S03E01.TVRip.avi
Формат : AVI
Формат/Информация : Audio Video Interleave
Размер файла : 387 Мбайт
Продолжительность : 41 м.
Режим общего битрейта : Переменный
Общий поток : 1302 Кбит/сек
Программа кодирования : VirtualDubModRus 1.5.10.2 (build 2540/release)
Библиотека кодирования : VirtualDubMod build 2540/release

Видео
Идентификатор : 0
Формат : MPEG-4 Visual
Профиль формата : Advanced Simple@L5
Параметр BVOP формата : 2
Параметр QPel формата : Нет
Параметр GMC формата : Без точки перехода
Параметр матрицы формата : Default (H.263)
Режим смешивания : Сжатый битовый поток
Идентификатор кодека : XVID
Идентификатор кодека/Подсказка : XviD
Продолжительность : 41 м.
Битрейт : 1036 Кбит/сек
Ширина : 480 пикселей
Высота : 352 пикселя
Соотношение сторон : 4:3
Частота кадров : 29,970 кадров/сек
Цветовое пространство : YUV
Субдискретизация насыщенности : 4:2:0
Битовая глубина : 8 бит
Тип развёртки : Прогрессивная
Метод сжатия : С потерями
Бит/(Пиксели*Кадры) : 0.205
Размер потока : 308 Мбайт (80%)
Библиотека кодирования : XviD 1.0.1 (UTC 2004-06-05)

Аудио #1
Идентификатор : 1
Формат : MPEG Audio
Версия формата : Version 1
Профиль формата : Layer 3
Режим : Joint stereo
Расширение режима : MS Stereo
Идентификатор кодека : 55
Идентификатор кодека/Подсказка : MP3
Продолжительность : 41 м.
Вид битрейта : Постоянный
Битрейт : 128 Кбит/сек
Каналы : 2 канала
Частота : 48,0 КГц
Метод сжатия : С потерями
Размер потока : 38,1 Мбайт (10%)
Выравнивание : Соединение по промежуткам
Продолжительность промежутка : 33 мс. (1,00 видеокадр)
Время предзагрузки промежутка : 504 мс.

Аудио #2
Идентификатор : 2
Формат : MPEG Audio
Версия формата : Version 1
Профиль формата : Layer 3
Режим : Joint stereo
Расширение режима : MS Stereo
Идентификатор кодека : 55
Идентификатор кодека/Подсказка : MP3
Продолжительность : 41 м.
Вид битрейта : Переменный
Битрейт : 121 Кбит/сек
Каналы : 2 канала
Частота : 48,0 КГц
Метод сжатия : С потерями
Размер потока : 35,9 Мбайт (9%)
Выравнивание : Разделение по промежуткам
Продолжительность промежутка : 33 мс. (1,00 видеокадр)
Время предзагрузки промежутка : 500 мс.

[/u][/u]


_________________



реклама партнёра


Вернуться к началу
 Профиль Отправить личное сообщение  
 
   Похожие торренты   Автор   Торрент   Размер 
В этой теме нет новых непрочитанных сообщений. Семь дней / Seven Days [s02] [Фантастика, боевик, драма, 1999] TVRip, Avo [Дольский]

salma3

18 | 15

8.7 ГБ

В этой теме нет новых непрочитанных сообщений. Семь дней / Seven Days [01x01-18 из 21] [фантастика, боевик, драма, 1998] TVRip, Avo [Дольский]

salma3

4 | 2

6.8 ГБ

В этой теме нет новых непрочитанных сообщений. Шесть дней, семь ночей / Six Days Seven Nights [боевик, мелодрама, комедия, приключения, 1998] WEB-DL 720p, Dub

salma3

72 | 14

3.27 ГБ

В этой теме нет новых непрочитанных сообщений. Шесть дней, семь ночей / Six Days Seven Nights [Мелодрама, Комедия, Боевик, Приключения, 1998] HDRip 1080p, Dub+Sub

salma3

0 | 0

4.37 ГБ

В этой теме нет новых непрочитанных сообщений. Росомаха: Бессмертный / The Wolverine [Фантастика, Боевик, Триллер, Приключения, 2013] HDRip, Avo [Дольский]

salma3

55 | 12

1.47 ГБ

В этой теме нет новых непрочитанных сообщений. Странные дни / Strange Days [фантастика, боевик, триллер, драма, криминал, 1995] BDRip 1080p, Mvo+Avo+Sub

salma3

74 | 21

14.95 ГБ

В этой теме нет новых непрочитанных сообщений. 28 дней / 28 Days [драма, комедия, 2000] DVDRip, Mvo

salma3

224 | 15

1.46 ГБ


Начать новую тему Ответить на тему  [ 1 сообщение ] 




Для Мосгорсуда, Роскомнадзора и рекламодателей:: mosgorsud-torrent[собачка]yandex.ru