Торрент файл
скачать торрент магнет ссылка Добавлен: 23 ноя 2015, 21:12
Размер: 1.36 ГБ
Сидеров: 105
Личеров: 10
Автор

СообщениеДобавлено: 23 ноя 2015, 21:12 

Не в сети
Зам. Админа
Аватара пользователя
Дата регистрации:
02 дек 2010, 12:39
Спасибо: 12623 / 214
Сообщения: 28012
Название: Волшебники
Оригинальное название: The Magicians
Год выхода: 2015
Жанр: ужасы, фэнтези, драма, детектив
Режиссеры: Джеймс Л. Конуэй, Скотт Смит, Гай Норман Би
В ролях: Джейд Тейлор, Джейсон Ральф, Оливия Тейлор Дадли, Арджун Гупта, Хейл Эйплмен, Саммер Бишил, Энтони Марбл, Эдвин Перез, Стелла Маив, Ханна Левиен и др.

Описание
Квентин Колдуотер поступает в тайный университет, специализирующийся на магии. Вскоре он со своими юными друзьями узнаёт, что фэнтези мир, о котором все читали в детстве, более чем реален и представляет серьезную угрозу для человечества.

Страна: США
Продолжительность: ~00:50:00
Перевод: Любительский (многоголосый закадровый) Alternative Production
Субтитры: Отсутствуют



Файл
Кодек: MKV
Качество: WEB-DL 720p
Видео: H.264, 1280x720 (16:9), 23,976 fps, ~3737 kbps, 0.160
Аудио: AC3 192 Кбит/сек 2 канала 48,0 КГц | Alternative Production



Общее
Уникальный идентификатор : 193848635045732520477291414768617255289 (0x91D5E39B7D11558DACEBD945240FF179)
Полное имя : C:UsersОлегDesktopТоррентThe.Magician.s.S1.720р.[ Alt Pro]The Magicians S1- Pilot 720р [ Alt Pro].mkv
Формат : Matroska
Версия формата : Version 2
Размер файла : 1,36 Гбайт
Продолжительность : 52 м.
Общий поток : 3737 Кбит/сек
Дата кодирования : UTC 2015-11-23 07:22:39
Программа кодирования : mkvmerge v7.8.0 ('River Man') 32bit built on Apr 3 2015 12:11:22
Библиотека кодирования : libebml v1.3.1 + libmatroska v1.4.2

Видео
Идентификатор : 1
Формат : AVC
Формат/Информация : Advanced Video Codec
Профиль формата : High@L3.1
Параметр CABAC формата : Да
Параметр ReFrames формата : 4 кадра
Идентификатор кодека : V_MPEG4/ISO/AVC
Продолжительность : 52 м.
Битрейт : 3525 Кбит/сек
Ширина : 1280 пикселей
Высота : 720 пикселей
Соотношение сторон : 16:9
Режим частоты кадров : Постоянный
Частота кадров : 23,976 кадра/сек
Цветовое пространство : YUV
Субдискретизация насыщенности : 4:2:0
Битовая глубина : 8 бит
Тип развёртки : Прогрессивная
Бит/(Пиксели*Кадры) : 0.160
Размер потока : 1,26 Гбайт (93%)
Библиотека кодирования : x264 core 146 r2538 121396c
Настройки программы : cabac=1 / ref=3 / deblock=1:0:0 / analyse=0x3:0x113 / me=hex / subme=7 / psy=1 / psy_rd=1.00:0.00 / mixed_ref=1 / me_range=16 / chroma_me=1 / trellis=1 / 8x8dct=1 / cqm=0 / deadzone=21,11 / fast_pskip=1 / chroma_qp_offset=-2 / threads=3 / lookahead_threads=1 / sliced_threads=0 / nr=0 / decimate=1 / interlaced=0 / bluray_compat=0 / constrained_intra=0 / bframes=3 / b_pyramid=2 / b_adapt=1 / b_bias=0 / direct=1 / weightb=1 / open_gop=0 / weightp=2 / keyint=250 / keyint_min=23 / scenecut=40 / intra_refresh=0 / rc_lookahead=40 / rc=abr / mbtree=1 / bitrate=3525 / ratetol=1.0 / qcomp=0.60 / qpmin=0 / qpmax=69 / qpstep=4 / ip_ratio=1.40 / aq=1:1.00
Default : Да
Forced : Нет

Аудио
Идентификатор : 2
Формат : AC-3
Формат/Информация : Audio Coding 3
Расширение режима : CM (complete main)
Параметр Endianness формата : Big
Идентификатор кодека : A_AC3
Продолжительность : 52 м.
Вид битрейта : Постоянный
Битрейт : 192 Кбит/сек
Каналы : 2 канала
Расположение каналов : Front: L R
Частота : 48,0 КГц
Метод сжатия : С потерями
Размер потока : 71,7 Мбайт (5%)
Default : Да
Forced : Нет
Внимание! Раздача ведётся путём добавления новых серий; при каждом добавлении создаётся новый торрент. Чтобы начать докачку новой серии, пользователям необходимо сделать следующее:
(1) остановить скачивание,
(2) удалить старый торрент у себя из клиента (старые серии удалять не надо),
(3) скачать новый торрент и запустить его у себя в клиенте вместо старого, при этом указать клиенту путь в старую папку куда и должно происходить скачивание новых серий.

Ваш клиент при этом должен произвести хеширование (проверку) старой папки (если не производит сам - помогите ему сделать это), и будет докачивать только те серии которых у вас ещё нет. Старые серии при этом не удаляются, а продолжают раздаваться!

Eсли вы уже удалили старые серии, то предотвратить повторную закачку старых серий можно, отжав галочку в соответсвующих местах при запуске нового торрента. По возможности, желательно не удалять старые серии как можно дольше чтобы релизёр не столько продолжал раздавать старые серии, а смог сконцентрироваться на новых.




реклама партнёра


Вернуться к началу
 Профиль  
 
   Похожие торренты   Автор   Торрент   Размер 
В этой теме нет новых непрочитанных сообщений. Волшебники / The Magicians [01x01-02 из 10] (Джеймс Л. Конуэй, Скотт Смит, Гай Норман Би) [2015, ужасы, фэнтези, драма, детектив, HDTVRip | BaibaKo]

Dracon

30 | 18

1.24 ГБ

В этой теме нет новых непрочитанных сообщений. Волшебники / The Magicians [01x01-05 из 10] (Скотт Смит, Майк Кэхилл, Ян Элиасберг) [2015, ужасы, фэнтези, драма, детектив, HDTVRip | Jaskier]

Dracon

23 | 22

2.96 ГБ

В этой теме нет новых непрочитанных сообщений. Волшебники / The Magicians [01х01-05 из 13] (Скотт Смит, Майк Кэхилл, Ян Элиасберг) [2015, Детектив, Драма, Ужасы, Фэнтези, HDTVRip 720p | Jaskier]

Dracon

24 | 20

4.7 ГБ

В этой теме нет новых непрочитанных сообщений. Волшебники / The Magicians [01х01 из 13] (Скотт Смит, Майк Кэхилл, Ян Элиасберг) [ужасы, фэнтези, драма, детективдрама, 2015] HDTVRip 720p [BaibaKo]

Dracon

693 | 46

1.29 ГБ

В этой теме нет новых непрочитанных сообщений. Волшебники / The Magicians (Сезон 1, Серии 1-13 из 13) (Скотт Смит, Джен Элиасберг) [2016, Ужасы, фэнтези, драма, детектив , WEB-DLRip 1080p] [DD5.1] [MVO] [LostFilm ]

Враг Нароода

0 | 0

25.7 ГБ

В этой теме нет новых непрочитанных сообщений. Посланники / The Messengers [S01] (Дуан Кларк, Гай Норман Би, Джеймс Л. Конуэй) [Драма, фэнтези, 2015] WEB-DL 720p [NewStudio]

Dracon

20 | 13

17.41 ГБ

В этой теме нет новых непрочитанных сообщений. Сверхъестественное / Supernatural [10x01-16 из 23] (Филип Сгриккиа, Джеймс Л. Конуэй, Дженсен Эклс) [2014-2015, ужасы, фэнтези, триллер, драма, детектив, HDTVRip 720p | DreamRecords]

Nickolas3435

4 | 12

12.73 ГБ


Начать новую тему Ответить на тему  [ 1 сообщение ] 




Для Мосгорсуда, Роскомнадзора и рекламодателей:: mosgorsud-torrent[собачка]yandex.ru