Торрент файл
скачать торрент магнет ссылка Добавлен: 03 дек 2015, 20:17
Размер: 18.9 ГБ
Сидеров: 0
Личеров: 1
Автор

СообщениеДобавлено: 20 ноя 2015, 14:52 

Не в сети
Аватара пользователя
Дата регистрации:
09 авг 2014, 12:07
Спасибо: 49 / 1
Сообщения: 156
Откуда: КРАСНОГОРСК
Как я стал русским Сезон 1 , Серии 1-20 из 20



Год выпуска: 2015
Выпущено: Россия, , MyWay Company, Yellow, Black & White
Жанр: Комедия
Продолжительность: 00:25:00
Сезон: 1
Серии: 1-20
Количество серий в сезоне: 20
Перевод :Не требуется
Субтитры: Нет



Режиссер: Константин Статский

В ролях: Матеуш Даменцки, Сергей Чирков, Светлана Иванова, Александра Урсуляк, Анастасия Стежко, Виталий Хаев, Денис Пьянов, Никита Панфилов, Елизавета Кононова, Александра Кузенкина, Артем Лысков, Анастасия Акатова, Марина Маняхина, Татьяна Рыбинец, Александр Обласов, Владислав Дунаев


Сотрудник газеты American Post Алекс Уилсон отправляется в долгосрочную командировку в Россию, где ему предстоит не только ежедневно изучать удивительную российскую действительность, но и постепенно постигать загадочную русскую душу. Помимо выполнения редакционных заданий, Алекс заводит личный блог, где каждый день будет пытаться ответить на вопрос «что значит быть русским?»




Качество :WEB-DLRip 1080p
Формат: MKV
Видео кодек: H264
Видео: 4968Кбит/сек,1920х1080(16.9),в 29.976кадр/сек,AVC(High@L4)(CABAC/2 Ref Frames)
Аудио Кодек:AC3
Аудио Russian Dolby Digital 5.1:AC3 , 384 Kbps, 48.0 KHz, 6 ch

Звуковая дорожка сделана путем наложения чистого голоса озвучивателей на центральный канал оригинальной дорожки. Качество идентично звуковой дорожке.


Общее
Уникальный идентификатор : 251536773580646283358300418630475570871 (0xBD3C386E7383389781A785B5701FDEB7)
Полное имя : D:\К О М Е Д И И\Как я стал русским\How_I_became_Russian_2015_S01_RUS[STS_Russia]_H264_DD5.1_N.B_WEB-DLRip_1080p\How_I_became_Russian_2015_S01E01-E04_RUS[STS_Russia]_H264_DD5.1_N.B_WEB-DLRip_1080p.mkv
Формат : Matroska
Версия формата : Version 4 / Version 2
Размер файла : 3,79 Гбайт
Продолжительность : 1 ч. 39 м.
Режим общего битрейта : Переменный
Общий поток : 5461 Кбит/сек
Название фильма : How_I_became_Russian_2015_S01E01-E04_RUS[STS_Russia]_H264_DD5.1_N.B_WEB-DLRip_1080p
Дата кодирования : UTC 2015-11-13 18:37:19
Программа кодирования : mkvmerge v8.5.2 ('Crosses') 64bit
Библиотека кодирования : libebml v1.3.3 + libmatroska v1.4.4
DURATION : 01:39:17.220000000
NUMBER_OF_FRAMES : 186160
NUMBER_OF_BYTES : 285941760
_STATISTICS_WRITING_APP : mkvmerge v8.5.2 ('Crosses') 64bit
_STATISTICS_WRITING_DATE_UTC : 2015-11-13 18:37:19
_STATISTICS_TAGS : BPS DURATION NUMBER_OF_FRAMES NUMBER_OF_BYTES

Видео
Идентификатор : 1
Формат : AVC
Формат/Информация : Advanced Video Codec
Профиль формата : High@L4
Параметр CABAC формата : Да
Параметр ReFrames формата : 2 кадра
Параметр GOP формата : M=2, N=15
Идентификатор кодека : V_MPEG4/ISO/AVC
Продолжительность : 1 ч. 39 м.
Вид битрейта : Переменный
Битрейт : 4968 Кбит/сек
Максимальный битрейт : 16,0 Мбит/сек
Ширина : 1920 пикселей
Высота : 1080 пикселей
Соотношение сторон : 16:9
Режим частоты кадров : Постоянный
Частота кадров : 29,970 кадров/сек
Цветовое пространство : YUV
Субдискретизация насыщенности : 4:2:0
Битовая глубина : 8 бит
Тип развёртки : Прогрессивная
Бит/(Пиксели*Кадры) : 0.080
Размер потока : 3,45 Гбайт (91%)
Язык : English
Default : Нет
Forced : Нет

Аудио
Идентификатор : 2
Формат : AC-3
Формат/Информация : Audio Coding 3
Расширение режима : CM (complete main)
Параметр Endianness формата : Big
Идентификатор кодека : A_AC3
Продолжительность : 1 ч. 39 м.
Вид битрейта : Постоянный
Битрейт : 384 Кбит/сек
Каналы : 6 каналов
Расположение каналов : Front: L C R, Side: L R, LFE
Частота : 48,0 КГц
Метод сжатия : С потерями
Размер потока : 273 Мбайт (7%)
Default : Нет
Forced : Нет










1. Открыть торрент
2. Снять галки с тех файлов торрента, которые мы не хотим закачивать. Оставляем только на нужных нам файлах (файле).
3. Нажать О.К.

В клиенте utorrent

Инструкция

1) Открыть торрент


2) Снять галки с тех файлов торрента, которые мы не хотим закачивать:

* либо вручную, снимая с каждого файла галку( скрин №1)
* либо, нажав кнопку "Снять метки (Select None)", сняв сразу со всех файлов(скрин №2)
№1

№2

Оставляем только на нужных нам файлах (файле).

3)Нажать О.К










Внимание!!! 03.12. 2015. РАЗДАЧА ОБНОВЛЕНА. ФИНАЛ СЕЗОНА.ОБНОВИТЕ ТОРЕНТ ФАЙЛ.ПРИЯТНОГО ПРОСМОТРА .



Релиз от: Nikolai.Baranov & PIRATIYA







_________________

Легко быть оптимистом, когда судьба не валит с ног тяжелыми ударами, а лишь иногда легонько шлепает по заднице.



реклама партнёра


Вернуться к началу
 Профиль Отправить личное сообщение  
 
   Похожие торренты   Автор   Торрент   Размер 
В этой теме нет новых непрочитанных сообщений. Как я стал русским [01x01-20 из 20] (Константин Статский) [комедия, 2015] SATRip

Dracon

356 | 97

6.81 ГБ

В этой теме нет новых непрочитанных сообщений. Мажор (сезон 1, серия 1-12 из 12) (Константин Статский) [2014, Криминальная драма, HDTVRip-AVC 720p]

Враг Нароода

101 | 73

19.7 ГБ

В этой теме нет новых непрочитанных сообщений. Константин / Constantine / 1 сезон 1-13 серии из 13 [ужасы, фэнтези, 2014] WEB-DLRip, Mvo [BaibaKo]

salma3

28 | 17

7.51 ГБ

В этой теме нет новых непрочитанных сообщений. Чёрный список / The Blacklist / 2 сезон 1-22 серии из 22 [Драма, криминал, боевик, триллер, детектив, 2014-2015] WEB-DLRip 1080p, Mvo [LostFilm]

salma3

66 | 67

39.75 ГБ

В этой теме нет новых непрочитанных сообщений. Слуга народа (Серии: 1-24 из 24) (Алексей Кирющенко) [2015, Политическая комедия , WEB-DLRip 1080p]

Враг Нароода

6 | 3

18.7 ГБ

В этой теме нет новых непрочитанных сообщений. Бруклин 9-9 / Brooklyn Nine-Nine / 3 сезон 1-22 серии из 23 [комедия, кримина, 2015] WEB-DLRip, Mvo [NewStudio]

salma3

74 | 153

5.44 ГБ

В этой теме нет новых непрочитанных сообщений. Непригодные для свиданий / Undateable / 2 сезон 1-10 серии из 10 [комедия, 2015] WEB-DLRip, Mvo [BaibaKo]

salma3

24 | 7

2.86 ГБ


Начать новую тему Ответить на тему  [ 1 сообщение ] 




Для Мосгорсуда, Роскомнадзора и рекламодателей:: mosgorsud-torrent[собачка]yandex.ru