Торрент файл
скачать торрент магнет ссылка Добавлен: 19 ноя 2015, 21:48
Размер: 7.25 ГБ
Сидеров: 4
Личеров: 2
Автор

СообщениеДобавлено: 19 ноя 2015, 21:48 

Не в сети
Зам. Админа
Аватара пользователя
Дата регистрации:
02 дек 2010, 12:39
Спасибо: 12461 / 214
Сообщения: 27968
Год выпуска: 2015
Страна: США
Жанр: драма, криминал
Продолжительность: ~42
Перевод: Профессиональный (многоголосый закадровый) [Gears Media]
Режиссёр: Эндрю Бернштейн, Дэниэл Эттиэс, Колин Бакси
В ролях: Джош Дюамель, Дин Уинтерс, Джанет МакТир, Кэл Пенн, Обри Доллар, Дэймон Херриман, Лиза Лапира, Джесси Фудрей, Мередит Итон, Джули Перл, Артур Ричардсон

Описание:
Два детектива с разными взглядами на мир объединяются, чтобы очистить улицы Батл Крика, используя цинизм, коварство и обман…

Доп. информация:
Студийная озвучка

Качество: HDTVRip
Контейнер: AVI
Видео: 720x400 (16:9), 23,976 fps, 969 kbps
Аудио: Russian, AC3, 48 kHz, 2 ch, 192 kbps
Субтитры: отсутствуют

Семпл

Формат : AVI
Формат/Информация : Audio Video Interleave
Размер файла : 345 Мбайт
Продолжительность : 41 м.
Общий поток : 1171 Кбит/сек
Программа кодирования : VirtualDubMod 1.5.10.2 (build 2540/release)
Библиотека кодирования : VirtualDubMod build 2540/release

Видео
Идентификатор : 0
Формат : MPEG-4 Visual
Профиль формата : Advanced Simple@L5
Параметр BVOP формата : 2
Параметр QPel формата : Да
Параметр GMC формата : 3 точки перехода
Параметр матрицы формата : Default (MPEG)
Режим смешивания : Сжатый битовый поток
Идентификатор кодека : XVID
Идентификатор кодека/Подсказка : XviD
Продолжительность : 41 м.
Битрейт : 969 Кбит/сек
Ширина : 720 пикселей
Высота : 400 пикселей
Соотношение сторон : 16:9
Частота кадров : 23,976 кадра/сек
Цветовое пространство : YUV
Субдискретизация насыщенности : 4:2:0
Битовая глубина : 8 бит
Тип развёртки : Прогрессивная
Метод сжатия : С потерями
Бит/(Пиксели*Кадры) : 0.140
Размер потока : 286 Мбайт (83%)
Библиотека кодирования : XviD 1.2.1 (UTC 2008-12-04)

Аудио
Идентификатор : 1
Формат : AC-3
Формат/Информация : Audio Coding 3
Расширение режима : CM (complete main)
Параметр Endianness формата : Big
Идентификатор кодека : 2000
Продолжительность : 41 м.
Вид битрейта : Постоянный
Битрейт : 192 Кбит/сек
Каналы : 2 канала
Расположение каналов : Front: L R
Частота : 48,0 КГц
Битовая глубина : 16 бит
Метод сжатия : С потерями
Размер потока : 56,6 Мбайт (16%)
Выравнивание : Соединение по промежуткам
Продолжительность промежутка : 42 мс. (1,00 видеокадр)
Время предзагрузки промежутка : 512 мс.




реклама партнёра


Вернуться к началу
 Профиль  
 
   Похожие торренты   Автор   Торрент   Размер 
В этой теме нет новых непрочитанных сообщений. Батл Крик / Battle Creek [01х01-12 из 13] (Эндрю Бернштейн, Дэниэл Эттиэс, Колин Бакси) [2015, драма, криминал, WEB-DLRip | Gears Media]

Nickolas3435

3 | 7

6.74 ГБ

В этой теме нет новых непрочитанных сообщений. Батл Крик / Battle Creek [S01] (Эндрю Бернштейн, Дэниэл Эттиэс, Колин Бакси) [2015, драма, криминал, WEB-DL 720p | Gears Media]

Dracon

7 | 4

15.66 ГБ

В этой теме нет новых непрочитанных сообщений. Батл Крик / Battle Creek [01х01-03 из 13] (Эндрю Бернштейн, Дэниэл Эттиэс, Колин Бакси) [2015, драма, криминал, HDTVRip | Gears Media]

Nickolas3435

3 | 12

1.03 ГБ

В этой теме нет новых непрочитанных сообщений. Батл Крик / Battle Creek [01х01 из 13] (Эндрю Бернштейн, Дэниэл Эттиэс, Колин Бакси) [2015, драма, криминал, HDTVRip | Gears Media]

Nickolas3435

7 | 13

345.39 МБ

В этой теме нет новых непрочитанных сообщений. Батл Крик / Battle Creek [01х01 из 13] (Эндрю Бернштейн, Дэниэл Эттиэс, Колин Бакси) [2015, драма, криминал, HDTVRip 720p | Gears Media]

Nickolas3435

31 | 12

838.89 МБ

В этой теме нет новых непрочитанных сообщений. Батл Крик / Battle Creek [01х01-03 из 13] (Эндрю Бернштейн, Дэниэл Эттиэс, Колин Бакси) [2015, драма, криминал, HDTVRip 720p | Gears Media]

Nickolas3435

0 | 12

2.81 ГБ

В этой теме нет новых непрочитанных сообщений. Батл Крик / Battle Creek [S01] (Эндрю Бернштейн, Дэниэл Эттиэс, Колин Бакси) [2015, Драма, криминал, WEB-DLRip | Пифагор]

Dracon

14 | 10

8.95 ГБ


Начать новую тему Ответить на тему  [ 1 сообщение ] 




Для Мосгорсуда, Роскомнадзора и рекламодателей:: mosgorsud-torrent[собачка]yandex.ru