Торрент файл
скачать торрент магнет ссылка Добавлен: 15 ноя 2015, 16:43
Размер: 4.32 ГБ
Сидеров: 6
Личеров: 39
Автор

СообщениеДобавлено: 15 ноя 2015, 16:43 

Не в сети
Зам. Админа
Аватара пользователя
Дата регистрации:
02 дек 2010, 12:39
Спасибо: 12460 / 214
Сообщения: 27968
Информация о фильме
Название: Долина смерти / Долина мертвецов
Оригинальное название: Death Valley
Год выхода: 2011
Жанр: ужасы, комедия
Режиссер: Дрю Дэйуолт, Остин Ридинг, Джордан Вот-Робертс
В ролях: Тексас Бэттл, Брайс Джонсон, Таня Рэймонд, Чарли Сандерс, Брайан Коллен, Кейти Лотц, Тоби Меули, Вене Л. Аркораки, Канту Р.Дж., Кортни Хэлверсон

Описание: Хоррор-комедия, которая расскажет о людских подвигах спецотдела по борьбе с нежитью — элитного подразделения департамента полиции Лос-Анджелеса, которое было сформировано в 2009 году, когда долину Сан-Фернандо заполонили зомби, вампиры и оборотни.



Страна: США
Продолжительность: 12x ~ 22 мин
Перевод: Профессиональный (многоголосый закадровый) - Перец + Оригинал (английский)

Файл
Формат: AVI
Качество: WEB-DLRip
Видео: 720x400, (16:9), DivX 5, 1900 Кбит/сек, 23,976 кадра/сек
Аудио №1: AC3, 192 Кбит/сек, 2 канала, 48,0 КГц - Перец
Аудио №2: AC3, 192 Кбит/сек, 2 канала, 48,0 КГц - Оригинал (английский)

Общее
Полное имя : J:Долина смерти1x01 - Pilot.avi
Формат : AVI
Формат/Информация : Audio Video Interleave
Размер файла : 371 Мбайт
Продолжительность : 22 м.
Общий поток : 2313 Кбит/сек
Название фильма : Долина мертвецов (Долина смерти). Сезон 1 / Death Valley. Season 1 (2011)
Программа кодирования : VirtualDubMod 1.5.10.2 (build 2540/release)
Библиотека кодирования : VirtualDubMod build 2540/release
Видео
Идентификатор : 0
Формат : MPEG-4 Visual
Профиль формата : Advanced Simple@L5
Параметр BVOP формата : 2
Параметр QPel формата : Нет
Параметр GMC формата : Без точки перехода
Параметр матрицы формата : Default (MPEG)
Идентификатор кодека : DX50
Идентификатор кодека/Подсказка : DivX 5
Продолжительность : 22 м.
Битрейт : 1915 Кбит/сек
Ширина : 720 пикселей
Высота : 400 пикселей
Соотношение сторон : 16:9
Частота кадров : 23,976 кадра/сек
Цветовое пространство : YUV
Субдискретизация насыщенности : 4:2:0
Битовая глубина : 8 бит
Тип развёртки : Прогрессивная
Метод сжатия : С потерями
Бит/(Пиксели*Кадры) : 0.277
Размер потока : 308 Мбайт (83%)
Библиотека кодирования : XviD 1.1.0 (UTC 2005-11-22)

Аудио #1
Идентификатор : 1
Формат : AC-3
Формат/Информация : Audio Coding 3
Расширение режима : CM (complete main)
Параметр Endianness формата : Big
Идентификатор кодека : 2000
Продолжительность : 22 м.
Вид битрейта : Постоянный
Битрейт : 192 Кбит/сек
Каналы : 2 канала
Расположение каналов : Front: L R
Частота : 48,0 КГц
Метод сжатия : С потерями
Размер потока : 30,8 Мбайт (8%)
Выравнивание : Разделение по промежуткам
Продолжительность промежутка : 42 мс. (1,00 видеокадр)
Время предзагрузки промежутка : 500 мс.
Заголовок : Профессиональный (многоголосый закадровый) ДТВ

Аудио #2
Идентификатор : 2
Формат : AC-3
Формат/Информация : Audio Coding 3
Расширение режима : CM (complete main)
Параметр Endianness формата : Big
Идентификатор кодека : 2000
Продолжительность : 22 м.
Вид битрейта : Постоянный
Битрейт : 192 Кбит/сек
Каналы : 2 канала
Расположение каналов : Front: L R
Частота : 48,0 КГц
Метод сжатия : С потерями
Размер потока : 30,8 Мбайт (8%)
Выравнивание : Разделение по промежуткам
Продолжительность промежутка : 42 мс. (1,00 видеокадр)
Время предзагрузки промежутка : 500 мс.
Заголовок : Английский




реклама партнёра


Вернуться к началу
 Профиль  
 
   Похожие торренты   Автор   Торрент   Размер 
В этой теме нет новых непрочитанных сообщений. Кремниевая долина / Силиконовая долина / Silicon Valley [02x01-06 из 10] (Майк Джадж) [2015, комедия, HDTVRip | Кубик в Кубе]

Nickolas3435

80 | 18

1.75 ГБ

В этой теме нет новых непрочитанных сообщений. Ты - воплощение порока / You're The Worst [02х01-12 из 13] (Джордан Вот-Робертс) [2015, Комедия, WEB-DLRip | Newstudio]

Dracon

14 | 16

3.44 ГБ

В этой теме нет новых непрочитанных сообщений. Ты - воплощение порока / You're The Worst [02х01-13 из 13] (Джордан Вот-Робертс) [2015, мелодрама, комедия, WEB-DLRip | BaibaKo]

Nickolas3435

2 | 8

4.04 ГБ

В этой теме нет новых непрочитанных сообщений. Азбука смерти 2 / ABCs of Death 2 [Комедия, Ужасы, 2014] WEB-DLRip, dvo

Dracon

978 | 45

1.36 ГБ

В этой теме нет новых непрочитанных сообщений. Кремниевая долина / Silicon Valley [S01-02] (Майк Джадж) [2014-2015, Комедия, HDTVRip | Кубик в Кубе]

Dracon

17 | 9

5.35 ГБ

В этой теме нет новых непрочитанных сообщений. Ты - воплощение порока / You're The Worst [02х01-11 из 13] (Джордан Вот-Робертс) [2015, Комедия, WEB-DL 1080p | Newstudio]

Dracon

7 | 15

10.53 ГБ

В этой теме нет новых непрочитанных сообщений. Ты - воплощение порока / You're The Worst [03x01-06 из 13] (Джордан Вот-Робертс) [2016, Комедия, мелодрама, HDTV 720р | Gears Media]

marya111

0 | 0

4.84 ГБ


Начать новую тему Ответить на тему  [ 1 сообщение ] 




Для Мосгорсуда, Роскомнадзора и рекламодателей:: mosgorsud-torrent[собачка]yandex.ru