Торрент файл
скачать торрент магнет ссылка Добавлен: 14 ноя 2015, 12:08
Размер: 17.99 ГБ
Сидеров: 17
Личеров: 6
Автор

СообщениеДобавлено: 14 ноя 2015, 12:08 

Не в сети
Зам. Админа
Аватара пользователя
Дата регистрации:
02 дек 2010, 12:39
Спасибо: 12460 / 214
Сообщения: 27968
Информация о сериале
Название: Как я встретил вашу маму
Оригинальное название: How I Met Your Mother
Годы выхода: 2008-2009
Жанр: комедия, мелодрама
Авторы идеи: Картер Бэйс, Крейг Томас
Режиссеры: Памела Фрайман, Роб Гринберг, Майкл Дж. Ши и др.
В ролях: Джош Рэднор, Нил Патрик Харрис, Коби Смолдерс, Джейсон Сигел, Элисон Хэннигэн, Боб Сагет, Линдси Фонсека, Дэвид Генри, Сара Чок, Шарлин Амойя и др.

О сериале:
«Как я встретил вашу маму» — комедия про Теда и про то, как он влюбился. Все неприятности начинаются с того, что лучший друг Теда, Маршалл, вдруг неожиданно сообщил, что он хочет сделать предложение своей давней подруге, Лили, воспитательнице детского сада. К тому времени Тед понимает, что ему нужно прилагать больше усилий, если он действительно надеется найти свою настоящую любовь. Помогает ему в этих поисках его друг Барни, убежденный холостяк, вечно со своим, иногда чересчур, мнением на все происходящее, со склонностью к костюмам и верным способом познакомиться с девушками. Когда Тед встречает Робин, он решает, что это любовь с первого взгляда, но у судьбы в запасе есть кое-что еще.



Страна: США
Студии: 20th Century Fox Television / Bays Thomas Productions
Продолжительность: 24 x ~ 00:22:00
Перевод:
Профессиональный (одноголосый, закадровый) - Кураж-Бамбей
Профессиональный (двухголосый, закадровый) - Кураж-Бамбей по заказу Paramount Comedy
Профессиональный (многоголосый, закадровый) - Кравец по заказу MTV

Файл
Кодек: H.264
Качество: WEB-DL 720p
Видео: 1280x720 at 23.976 fps, MPEG-4 AVC, ~4000 kbps avg
Аудио#1: Russian: 48 kHz, AC3, 2/0 (L,R) ch, ~192.00 kbps avg |Одноголосый закадровый, Кураж-Бамбей|
Аудио#2: Russian: 48 kHz, AC3, 2/0 (L,R) ch, ~192.00 kbps avg |Двухголосый закадровый, Paramount Comedy|
Аудио#3: Russian: 48 kHz, AC3, 2/0 (L,R) ch, ~192.00 kbps avg |Многоголосый закадровый, MTV|
Аудио#4: English: 48 kHz, AC3, 3/2 (L,C,R,l,r) + LFE ch, ~384.00 kbps avg |Оригинал|
Субтитры: Russian (Full), English (SDH)

General
Complete name : HIMYM.S04E01.720p.WEB-DL.3xRus.Eng.mkv
Format : Matroska
Format version : Version 4 / Version 2
File size : 787 MiB
Duration : 21mn 51s
Overall bit rate : 5 034 Kbps
Movie name : How I Met Your Mother - Season 4 Episode 1 - Do I Know You? / Я тебя знаю?
Encoded date : UTC 2015-08-07 11:36:53
Writing application : mkvmerge v7.7.0 ('Six Voices') 32bit built on Feb 28 2015 23:23:00
Writing library : libebml v1.3.1 + libmatroska v1.4.2
DURATION : 00:21:21.145000000
NUMBER_OF_FRAMES : 469
NUMBER_OF_BYTES : 15838
_STATISTICS_WRITING_APP : mkvmerge v7.7.0 ('Six Voices') 32bit built on Feb 28 2015 23:23:00
_STATISTICS_WRITING_DATE_UTC : 2015-08-07 11:36:53
_STATISTICS_TAGS : BPS DURATION NUMBER_OF_FRAMES NUMBER_OF_BYTES

Video
ID : 1
Format : AVC
Format/Info : Advanced Video Codec
Format profile : High@L3.1
Format settings, CABAC : No
Format settings, ReFrames : 2 frames
Codec ID : V_MPEG4/ISO/AVC
Duration : 21mn 51s
Bit rate : 3 973 Kbps
Width : 1 280 pixels
Height : 720 pixels
Display aspect ratio : 16:9
Frame rate mode : Constant
Frame rate : 23.976 fps
Color space : YUV
Chroma subsampling : 4:2:0
Bit depth : 8 bits
Scan type : Progressive
Bits/(Pixel*Frame) : 0.180
Stream size : 621 MiB (79%)
Title : HIMYM - S04E01 - Do I Know You?
Language : English
Default : Yes
Forced : No
Color range : Limited
Color primaries : BT.709
Transfer characteristics : BT.709
Matrix coefficients : BT.709

Audio #1
ID : 2
Format : AC-3
Format/Info : Audio Coding 3
Mode extension : CM (complete main)
Format settings, Endianness : Big
Codec ID : A_AC3
Duration : 21mn 51s
Bit rate mode : Constant
Bit rate : 192 Kbps
Channel(s) : 2 channels
Channel positions : Front: L R
Sampling rate : 48.0 KHz
Compression mode : Lossy
Stream size : 30.0 MiB (4%)
Title : VO Кураж-Бамбей
Language : Russian
Default : Yes
Forced : No

Audio #2
ID : 3
Format : AC-3
Format/Info : Audio Coding 3
Mode extension : CM (complete main)
Format settings, Endianness : Big
Codec ID : A_AC3
Duration : 21mn 51s
Bit rate mode : Constant
Bit rate : 192 Kbps
Channel(s) : 2 channels
Channel positions : Front: L R
Sampling rate : 48.0 KHz
Compression mode : Lossy
Stream size : 30.0 MiB (4%)
Title : DVO Paramount Comedy / Кураж-Бамбей 2014
Language : Russian
Default : No
Forced : No

Audio #3
ID : 4
Format : AC-3
Format/Info : Audio Coding 3
Mode extension : CM (complete main)
Format settings, Endianness : Big
Codec ID : A_AC3
Duration : 21mn 51s
Bit rate mode : Constant
Bit rate : 192 Kbps
Channel(s) : 2 channels
Channel positions : Front: L R
Sampling rate : 48.0 KHz
Compression mode : Lossy
Stream size : 30.0 MiB (4%)
Title : MVO Кравец
Language : Russian
Default : No
Forced : No

Audio #4
ID : 5
Format : AC-3
Format/Info : Audio Coding 3
Mode extension : CM (complete main)
Format settings, Endianness : Big
Codec ID : A_AC3
Duration : 21mn 51s
Bit rate mode : Constant
Bit rate : 384 Kbps
Channel(s) : 6 channels
Channel positions : Front: L C R, Side: L R, LFE
Sampling rate : 48.0 KHz
Compression mode : Lossy
Stream size : 60.1 MiB (8%)
Title : Original
Language : English
Default : No
Forced : No

Text #1
ID : 6
Format : UTF-8
Codec ID : S_TEXT/UTF8
Codec ID/Info : UTF-8 Plain Text
Language : Russian
Default : No
Forced : No

Text #2
ID : 7
Format : UTF-8
Codec ID : S_TEXT/UTF8
Codec ID/Info : UTF-8 Plain Text
Language : English
Default : No
Forced : No
01. Do I Know You? / Я тебя знаю?
02. The Best Burger in New York / Лучший бургер в Нью-Йорке
03. I Heart NJ / Я ненавижу Нью-Джерси
04. Intervention / Интервенция
05. Shelter Island / Шелтер-Айленд
06. Happily Ever After / И жили они долго и счастливо
07. Not a Father's Day / День не-отца
08. Woooo! / Вууу!
09. The Naked Man / Голый мужик
10. The Fight / Драка
11. Little Minnesota / Маленькая Миннесота
12. Benefits / Выгоды
13. Three Days of Snow / Трёхдневный снегопад
14. The Possimpible / Вознеможное
15. The Stinsons / Стинсоны
16. Sorry, Bro / Прости, братан
17. The Front Porch / Веранда
18. Old King Clancy / Старый Король Кленси
19. Murtaugh / Список Муртау
20. Mosbius Designs / Мосбиус Дизайнс
21. The Three Days Rule / Правило трёх дней
22. Right Place Right Time / В нужном месте, в нужное время
23. As Fast as She Can / Так быстро, как она только может
24. The Leap / Прыжок




реклама партнёра


Вернуться к началу
 Профиль  
 
   Похожие торренты   Автор   Торрент   Размер 
В этой теме нет новых непрочитанных сообщений. Последний настоящий мужчина / Last Man Standing [S01] [комедия, 2011-2012] WEB-DLRip 720p, Dub [Paramount Comedy]

salma3

43 | 21

16.87 ГБ

В этой теме нет новых непрочитанных сообщений. Последний настоящий мужчина / Last Man Standing [S03] [комедия, 2013-2014] WEB-DLRip 720p, Dub [Paramount Comedy]

salma3

17 | 16

15.53 ГБ

В этой теме нет новых непрочитанных сообщений. Последний настоящий мужчина / Last Man Standing [S04] [комедия, 2013-2014] WEB-DLRip 720p, Dub [Paramount Comedy]

salma3

14 | 7

15.48 ГБ

В этой теме нет новых непрочитанных сообщений. Последний настоящий мужчина / Last Man Standing [S02] [комедия, 2013-2014] WEB-DLRip 720p, Dub [Paramount Comedy]

salma3

18 | 17

12.68 ГБ

В этой теме нет новых непрочитанных сообщений. Последний настоящий мужчина / Last Man Standing [S05] [комедия, 2015-2016] WEB-DLRip 720p, Dub [Paramount Comedy]

salma3

46 | 33

15.29 ГБ

В этой теме нет новых непрочитанных сообщений. Теория Большого Взрыва / The Big Bang Theory [08x01-07 из 24] (Марк Сендроуски, Питер Чакос, Энтони Джозеф Рич) [2014, Ситком, комедия, WEB-DL 720p | Кураж-Бамбей]

Nickolas3435

290 | 266

4.61 ГБ

В этой теме нет новых непрочитанных сообщений. Теория Большого Взрыва / The Big Bang Theory [08x01-09 из 24] (Марк Сендроуски, Питер Чакос, Энтони Джозеф Рич) [2014, Ситком, комедия, WEB-DL 720p | Кураж-Бамбей]

Nickolas3435

179 | 151

5.93 ГБ


Начать новую тему Ответить на тему  [ 1 сообщение ] 




Для Мосгорсуда, Роскомнадзора и рекламодателей:: mosgorsud-torrent[собачка]yandex.ru