Торрент файл
скачать торрент магнет ссылка Добавлен: 12 ноя 2015, 21:24
Размер: 8.39 ГБ
Сидеров: 67
Личеров: 109
Автор

СообщениеДобавлено: 12 ноя 2015, 21:24 

Не в сети
Зам. Админа
Аватара пользователя
Дата регистрации:
02 дек 2010, 12:39
Спасибо: 12623 / 214
Сообщения: 28012
Информация о фильме
Название: Повелитель зверей
Оригинальное название: BeastMaster
Год выхода: 2000
Жанр: фэнтези, боевик, приключения
Режиссер: Майкл Оффер, Пино Амента, Карл Цвики
В ролях: Джексон Рэйне, Дэниэл Годдар, Стивен Грайвз, Моника Шнарре, Грэхам Бонд, Марджин Холден, Натали Джексон Мендоса, Эмили де Рэвин, Дэвид Патерсон, Дилан Бирк

Описание: В те времена, когда миром правил закон магии и дикой природы, родилась дивная легенда про воина, который понимал язык зверей, боролся с колдунами и темными силами. Его звали Дар — последний из племени. А еще его величали — Повелитель Зверей.



Страна: Австралия, Канада, США
Продолжительность: 22x ~ 45 мин
Перевод: Профессиональный (многоголосый, закадровый) - ANX Sci-Fi + Оригинал (английский)

Файл
Формат: AVI
Качество: DVDRip
Видео: 608x336, (16:9), XviD, ~1000 Кбит/сек, 29,970 кадров/сек
Аудио №1: MP3, 128 Кбит/сек, 2 канала, 48,0 КГц - AXN SciFi
Аудио №2: MP3, 111 Кбит/сек, 2 канала, 48,0 КГц - Оригинал (английский)

Общее
Полное имя : E:Beastmaster.S02.DVDrip.Rus-EngBeastmaster.S02E01.Manlinks.DVDrip.Rus-Eng.avi
Формат : AVI
Формат/Информация : Audio Video Interleave
Размер файла : 390 Мбайт
Продолжительность : 43 м.
Режим общего битрейта : Переменный
Общий поток : 1268 Кбит/сек
Программа кодирования : VirtualDubMod 1.5.10.2 (build 2540/release)
Библиотека кодирования : VirtualDubMod build 2540/release

Видео
Идентификатор : 0
Формат : MPEG-4 Visual
Профиль формата : Advanced Simple@L5
Параметр BVOP формата : 1
Параметр QPel формата : Нет
Параметр GMC формата : Без точки перехода
Параметр матрицы формата : Default (H.263)
Режим смешивания : Сжатый битовый поток
Идентификатор кодека : XVID
Идентификатор кодека/Подсказка : XviD
Продолжительность : 43 м.
Битрейт : 1009 Кбит/сек
Ширина : 608 пикселей
Высота : 336 пикселей
Соотношение сторон : 16:9
Частота кадров : 29,970 кадров/сек
Цветовое пространство : YUV
Субдискретизация насыщенности : 4:2:0
Битовая глубина : 8 бит
Тип развёртки : Прогрессивная
Метод сжатия : С потерями
Бит/(Пиксели*Кадры) : 0.165
Размер потока : 310 Мбайт (80%)
Библиотека кодирования : XviD 1.1.0 (UTC 2005-11-22)

Аудио #1
Идентификатор : 1
Формат : MPEG Audio
Версия формата : Version 1
Профиль формата : Layer 3
Режим : Joint stereo
Расширение режима : MS Stereo
Идентификатор кодека : 55
Идентификатор кодека/Подсказка : MP3
Продолжительность : 43 м.
Вид битрейта : Постоянный
Битрейт : 128 Кбит/сек
Каналы : 2 канала
Частота : 48,0 КГц
Метод сжатия : С потерями
Размер потока : 39,4 Мбайт (10%)
Выравнивание : Соединение по промежуткам
Продолжительность промежутка : 33 мс. (1,00 видеокадр)
Время предзагрузки промежутка : 504 мс.

Аудио #2
Идентификатор : 2
Формат : MPEG Audio
Версия формата : Version 1
Профиль формата : Layer 3
Режим : Joint stereo
Расширение режима : MS Stereo
Идентификатор кодека : 55
Идентификатор кодека/Подсказка : MP3
Продолжительность : 43 м.
Вид битрейта : Переменный
Битрейт : 112 Кбит/сек
Минимальный битрейт : 32,0 Кбит/сек
Каналы : 2 канала
Частота : 48,0 КГц
Метод сжатия : С потерями
Размер потока : 34,5 Мбайт (9%)
Выравнивание : Соединение по промежуткам
Продолжительность промежутка : 24 мс. (0,72 видеокадр)
Время предзагрузки промежутка : 234 мс.
Библиотека кодирования : LAME3.97b
Настройки программы : -m j -V 5 -q 3 -lowpass 16 --vbr-new -b 32





реклама партнёра


Вернуться к началу
 Профиль  
 
   Похожие торренты   Автор   Торрент   Размер 
В этой теме нет новых непрочитанных сообщений. Повелитель зверей / BeastMaster [S01] (Майкл Оффер, Пино Амента, Карл Цвики) [1999, фэнтези, боевик, приключения, DVDRip]

Nickolas3435

116 | 180

8.51 ГБ

В этой теме нет новых непрочитанных сообщений. Повелитель зверей / BeastMaster [S03] (Майкл Оффер, Пино Амента, Карл Цвики) [2001, фэнтези, боевик, приключения, DVDRip]

Dracon

84 | 124

8.39 ГБ

В этой теме нет новых непрочитанных сообщений. Повелитель железа / La guerra del ferro: Ironmaster [боевик, приключения, 1983] DVDRip, Avo

salma3

49 | 3

1.46 ГБ

В этой теме нет новых непрочитанных сообщений. Как избежать наказания за убийство / How to Get Away with Murder [02x01 из 15] (Билл Д’Элиа, Майкл Оффер) [2015, Детектив, Драма, Криминал, WEB-DL 720p | Fox]

Dracon

19 | 0

1.4 ГБ

В этой теме нет новых непрочитанных сообщений. Дракула 2000 / Dracula 2000 [ужасы, фэнтези, боевик, триллер, 2000] BDRip 720p, Dub+Sub

salma3

101 | 8

3.83 ГБ

В этой теме нет новых непрочитанных сообщений. Дракула 2000 / Dracula 2000 [ужасы, фэнтези, боевик, триллер, 2000] BDRip 1080p, Dub+Sub

salma3

54 | 14

9.81 ГБ

В этой теме нет новых непрочитанных сообщений. Как избежать наказания за убийство / How to Get Away with Murder [02х01-07 из 15] (Билл Д’Элиа, Майкл Оффер) [2015, триллер, драма, криминал, детектив, WEB-DLRip | Flux-Team]

Dracon

47 | 52

3.96 ГБ


Начать новую тему Ответить на тему  [ 1 сообщение ] 




Для Мосгорсуда, Роскомнадзора и рекламодателей:: mosgorsud-torrent[собачка]yandex.ru