Торрент файл
скачать торрент магнет ссылка Добавлен: 14 ноя 2015, 15:08
Размер: 24.68 ГБ
Сидеров: 6
Личеров: 4
Автор

СообщениеДобавлено: 12 ноя 2015, 15:20 

Не в сети
Аватара пользователя
Дата регистрации:
09 авг 2014, 12:07
Спасибо: 48 / 1
Сообщения: 156
Откуда: КРАСНОГОРСК
Чума / Девяностые Сезон 1 , Серии 1-24 из 24



Год выпуска: 2015
Выпущено: Россия, , ООО «Студия «КонтАкт продакшн» по заказу АО «Телекомпания НТВ»
Жанр: Драма, криминал
Продолжительность: 00:45:00
Сезон: 1
Серии: 1-24
Количество серий в сезоне: 24
Перевод :Не требуется
Субтитры: Нет

Кинопоиск

Режиссер: Алексей Козлов, Александр Устюгов

В ролях: Сергей Жарков, Александр Устюгов, Юрий Беляев, Борис Щербаков, Екатерина Климова, Сергей Селин, Андрей Горбачёв, Светлана Смирнова-Марцинкевич, Наталья Ткаченко, Никита Рогов, Андрей Аксёнов, Даниил Кокин, Евгений Филимонов, Ксения Ирхина, Вера Шпак, Андрей Белоцерковский, Елизавета Ковалёва, Елена Мартыненко, Яков Шамшин, Юлия Вознесенская, Сергей Яценюк, Иван Батарев, Андрей Шимко, Михаил Соловьев, Всеволод Цурило, Юлия Галкина, Павел Григорьев, Михаил Морозов, Иван Немцов


«Чума» — фильм о нас и о «девяностых». Рушится эпоха, на смену ей приходит другая. Мужчины — любят деньги, женщины — любят тех, у кого они есть!

Героям фильма нужно вписаться в обстоятельства новой жизни, но далеко не у всех это получается. Жизнь людей происходит на разных полюсах криминальной эпохи: взлет олигархов и обнищание народа. Эта жизнь раздаёт дивиденды не по заслугам и справедливости, а по законам волчьей стаи, где выживает сильнейший....





Качество :HDTVRip-AVC 400p
Формат: MKV
Видео кодек: H264
Видео: 2814Кбит/сек,720х480(3.2),в 29.976кадр/сек,AVC(NTSC)(Baseline@L3)(1 Ref Frames)
Аудио Кодек:AC3
Аудио Russian Dolby Digital 5.1:AC3 , 384 Kbps, 48.0 KHz, 6 ch

Звуковая дорожка сделана путем наложения чистого голоса озвучивателей на центральный канал оригинальной дорожки. Качество идентично звуковой дорожке.


Общее
Уникальный идентификатор : 218336571471260931175459043908861172680 (0xA44218169E65861FB90E610BED361BC8)
Полное имя : D:\НАШЕ КИНО\Ч У М А\Chuma_Devyanostye_2015_S01_RUS[NTV_Russia]_H264_DD5.1_N.B_HDTVRip_400p\Chuma_Devyanostye_2015_S01E01-E02_RUS[NTV_Russia]_H264_DD5.1_N.B_HDTVRip_400p.mkv
Формат : Matroska
Версия формата : Version 4 / Version 2
Размер файла : 2,02 Гбайт
Продолжительность : 1 ч. 28 м.
Режим общего битрейта : Переменный
Общий поток : 3263 Кбит/сек
Название фильма : Chuma_Devyanostye_2015_S01E01-E02_RUS[NTV_Russia]_H264_DD5.1_N.B_HDTVRip_400p
Дата кодирования : UTC 2015-11-09 08:06:03
Программа кодирования : mkvmerge v8.5.2 ('Crosses') 64bit
Библиотека кодирования : libebml v1.3.3 + libmatroska v1.4.4
DURATION : 01:28:47.738000000
NUMBER_OF_FRAMES : 166491
NUMBER_OF_BYTES : 255730176
_STATISTICS_WRITING_APP : mkvmerge v8.5.2 ('Crosses') 64bit
_STATISTICS_WRITING_DATE_UTC : 2015-11-09 08:06:03
_STATISTICS_TAGS : BPS DURATION NUMBER_OF_FRAMES NUMBER_OF_BYTES

Видео
Идентификатор : 1
Формат : AVC
Формат/Информация : Advanced Video Codec
Профиль формата : Baseline@L3
Параметр CABAC формата : Нет
Параметр ReFrames формата : 1 кадр
Параметр GOP формата : M=1, N=12
Идентификатор кодека : V_MPEG4/ISO/AVC
Продолжительность : 1 ч. 28 м.
Вид битрейта : Переменный
Битрейт : 2814 Кбит/сек
Максимальный битрейт : 3450 Кбит/сек
Ширина : 720 пикселей
Высота : 480 пикселей
Соотношение сторон : 3:2
Соотношение сторон в оригинале : 3:2
Режим частоты кадров : Постоянный
Частота кадров : 29,970 кадров/сек
Частота кадров в оригинале : 24,000 кадра/сек
Стандарт вещания : NTSC
Цветовое пространство : YUV
Субдискретизация насыщенности : 4:2:0
Битовая глубина : 8 бит
Тип развёртки : Прогрессивная
Бит/(Пиксели*Кадры) : 0.272
Размер потока : 1,75 Гбайт (86%)
Язык : English
Default : Да
Forced : Нет

Аудио
Идентификатор : 2
Формат : AC-3
Формат/Информация : Audio Coding 3
Расширение режима : CM (complete main)
Параметр Endianness формата : Big
Идентификатор кодека : A_AC3
Продолжительность : 1 ч. 28 м.
Вид битрейта : Постоянный
Битрейт : 384 Кбит/сек
Каналы : 6 каналов
Расположение каналов : Front: L C R, Side: L R, LFE
Частота : 48,0 КГц
Метод сжатия : С потерями
Размер потока : 244 Мбайт (12%)
Default : Нет
Forced : Нет


[align=center]

[/align]





1. Открыть торрент
2. Снять галки с тех файлов торрента, которые мы не хотим закачивать. Оставляем только на нужных нам файлах (файле).
3. Нажать О.К.

В клиенте utorrent

Инструкция

1) Открыть торрент


2) Снять галки с тех файлов торрента, которые мы не хотим закачивать:

* либо вручную, снимая с каждого файла галку( скрин №1)
* либо, нажав кнопку "Снять метки (Select None)", сняв сразу со всех файлов(скрин №2)
№1

№2

Оставляем только на нужных нам файлах (файле).

3)Нажать О.К








Внимание!!! 14.11. 2015. РАЗДАЧА ОБНОВЛЕНА. ФИНАЛ СЕЗОНА. ОБНОВИТЕ ТОРЕНТ ФАЙЛ.ПРИЯТНОГО ПРОСМОТРА .


Релиз от: Nikolai.Baranov & PIRATIYA







_________________

Легко быть оптимистом, когда судьба не валит с ног тяжелыми ударами, а лишь иногда легонько шлепает по заднице.



реклама партнёра


Вернуться к началу
 Профиль Отправить личное сообщение  
 
   Похожие торренты   Автор   Торрент   Размер 
В этой теме нет новых непрочитанных сообщений. Чума / Девяностые (Алексей Козлов, Александр Устюгов) (Сезон 1 , Серии 1-16 из 24) [2015 , Драма, криминал , HDTVRip 1080p]

Враг Нароода

В этой теме нет новых непрочитанных сообщений. Чума / Девяностые [1-3 серия из 24] (Алексей Козлов, Александр Устюгов) [драма, криминал, 2015] WEBRip

Dracon

49 | 2

1.59 ГБ

В этой теме нет новых непрочитанных сообщений. Чума [01-24 из 24] (Алексей Козлов, Александр Устюгов) [Драма, криминал, 2015] HDTVRip 720p

Dracon

424 | 856

37.34 ГБ

В этой теме нет новых непрочитанных сообщений. Девяностые [01x01-24 из 24] (Алексей Козлов, Александр Устюгов) [драма, криминал, 2015] SATRip

Dracon

479 | 249

14.31 ГБ

В этой теме нет новых непрочитанных сообщений. Чума [01-24 из 24] (Алексей Козлов, Александр Устюгов) [Драма, криминал, 2015] HDTV 1080i

Dracon

544 | 2961

60.16 ГБ

В этой теме нет новых непрочитанных сообщений. Инспектор Купер [Сезон 2 серия 1-30 из 30] (Максим Кубринский, Наталия Бучнева, Александр Картохин, Алексей Богданов) [Детектив, криминал, 2015] HDTVRip

Dracon

242 | 59

16.11 ГБ

В этой теме нет новых непрочитанных сообщений. Меч 2 + Пролог (Сезон 2, Серия 1-20 из 20) (Алексей Луканев) [2015, Детектив, криминал ,HDTVRip-AVC 1080p ]

Враг Нароода

4 | 0

48.87 ГБ


Начать новую тему Ответить на тему  [ 1 сообщение ] 




Для Мосгорсуда, Роскомнадзора и рекламодателей:: mosgorsud-torrent[собачка]yandex.ru