Торрент файл
скачать торрент магнет ссылка Добавлен: 12 ноя 2015, 09:19
Размер: 3.22 ГБ
Сидеров: 101
Личеров: 21
Автор

СообщениеДобавлено: 12 ноя 2015, 09:19 

Не в сети
Супермодератор
Аватара пользователя
Дата регистрации:
06 июн 2014, 07:51
Спасибо: 609 / 0
Сообщения: 2002
Информация о фильме
Название: Расследования Мердока
Оригинальное название: Murdoch Mysteries
Год выхода: 2014
Жанр: драма, криминал, детектив
Режиссер: Харви Кросслэнд, Лори Линд, Дон МакКатчен
В ролях: Янник Биссон, Хелен Джой, Томас Крэйг, Джонни Харрис, Лаклан Мёрдок, Джорджина Рейли, Кристиан Бруун, Арвен Хампрейс, Джонатан Уоттон, Найджел Беннетт

О фильме:
Конец 19-го века. На улицах Торонто происходят странные убийства. Детектив Уильям Мердок раскрывает их с помощью новой науки — криминалистики. У него есть союзник — судебный врач Джулия Огден. Ни юный возраст, ни хорошее воспитание, ни пышные юбки не мешают ей вскрывать трупы и проводить экспертизы.


Страна: Канада, Великобритания
Студия: Shaftesbury Films, Rogers Media, UKTV, ITV Studios Global Entertainment, Genesis International
Продолжительность: ~00:45:00 серия
Перевод: Любительский (двухголосый закадровый) - (DreamRecords)

Файл
Кодек: XviD / MP3
Качество: WEB-DLRip
Видео: MPEG4, XviD, 720x400 (16:9), 23.976 fps, 1 295 Kbps (0.188 bit/pixel)
Звук: MP3, 48.0 KHz, 2 ch, 192 Kbps, CBR

General
Complete name : Murdoch.Mysteries.S08E01.400p.WEB-DLRip.XviD - [DreamRecords].avi
Format : AVI
Format/Info : Audio Video Interleave
File size : 470 MiB
Duration : 43mn 56s
Overall bit rate : 1 496 Kbps
Writing application : VirtualDubModRus 1.5.10.2 (build 2542/release)
Writing library : VirtualDubMod build 2542/release

Video
ID : 0
Format : MPEG-4 Visual
Format profile : Advanced Simple@L5
Format settings, BVOP : 1
Format settings, QPel : No
Format settings, GMC : No warppoints
Format settings, Matrix : Default (MPEG)
Codec ID : XVID
Codec ID/Hint : XviD
Duration : 43mn 56s
Bit rate : 1 295 Kbps
Width : 720 pixels
Height : 400 pixels
Display aspect ratio : 16:9
Frame rate : 23.976 fps
Color space : YUV
Chroma subsampling : 4:2:0
Bit depth : 8 bits
Scan type : Progressive
Compression mode : Lossy
Bits/(Pixel*Frame) : 0.188
Stream size : 407 MiB (87%)
Writing library : XviD 64

Audio
ID : 1
Format : MPEG Audio
Format version : Version 1
Format profile : Layer 3
Codec ID : 55
Codec ID/Hint : MP3
Duration : 43mn 56s
Bit rate mode : Constant
Bit rate : 192 Kbps
Channel(s) : 2 channels
Sampling rate : 48.0 KHz
Compression mode : Lossy
Stream size : 60.3 MiB (13%)
Alignment : Aligned on interleaves
Interleave, duration : 42 ms (1.00 video frame)
Interleave, preload duration : 504 ms




реклама партнёра


Вернуться к началу
 Профиль Отправить личное сообщение  
 
   Похожие торренты   Автор   Торрент   Размер 
В этой теме нет новых непрочитанных сообщений. Расследования Мердока / Murdoch Mysteries [10x01-03] ( Драма, криминал, детектив, 2016) WEBRip | DexterTV

marya111

0 | 0

1.47 ГБ

В этой теме нет новых непрочитанных сообщений. Расследования Мердока / Murdoch Mysteries [10x01-06] (2016) WEBRip | DexterTV

marya111

80 | 40

2.94 ГБ

В этой теме нет новых непрочитанных сообщений. Тайны Лауры / The Mysteries of Laura / 1 сезон 1-22 серии из 22 [комедия, криминал, детектив, 2014] WEB-DLRip, Mvo [FOX Life]

salma3

47 | 15

9.33 ГБ

В этой теме нет новых непрочитанных сообщений. Леди-детектив мисс Фрайни Фишер / Miss Fisher's Murder Mysteries / 3 сезон 1-8 серии из 8 [Детектив, криминал, драма, 2015] WEB-DLRip, Mvo [ViruseProject]

salma3

250 | 82

4.71 ГБ

В этой теме нет новых непрочитанных сообщений. Морская полиция: Лос-Анджелес / NCIS: Los Angeles [08x01-21 из 24] ( Криминал, триллер, драма, детектив, 2016) WEB-DLRip 720p | IdeaFilm

marya111

1 | 2

29.01 ГБ

В этой теме нет новых непрочитанных сообщений. Тайны Броукенвуда / The Brokenwood Mysteries [Season 1, Epizode 1-4 of 4] (Майк Смит, Джошуа Фриззелл, Майкл Херст) [драма, детектив, 2014] WEB-DLRip, Mvo

Dracon

3 | 0

2.73 ГБ

В этой теме нет новых непрочитанных сообщений. Тайны Лоры / The Mysteries of Laura / 1 сезон 1-17 серии из 22 [детектив, комедия, 2014] WEB-DLRip, Mvo [Kiitos.tv]

salma3

3 | 3

8.28 ГБ


Начать новую тему Ответить на тему  [ 1 сообщение ] 




Для Мосгорсуда, Роскомнадзора и рекламодателей:: mosgorsud-torrent[собачка]yandex.ru