[ 1 сообщение ] 
Автор Сообщение

СообщениеДобавлено: 27 окт 2015, 14:14 

Не в сети
Аватара пользователя

Спасибо: 55 / 1
Сообщения: 189
Откуда: КРАСНОГОРСК
Дата регистрации: 09 авг 2014, 12:07
Торренты: 171
Чума / Девяностые Сезон 1 , Серии 1-16 из 24



Год выпуска: 2015
Выпущено: Россия, , ООО «Студия «КонтАкт продакшн» по заказу АО «Телекомпания НТВ»
Жанр: Драма, криминал
Продолжительность: 00:45:00
Сезон: 1
Серии: 1-16
Количество серий в сезоне: 24
Перевод :Не требуется
Субтитры: Нет

Кинопоиск

Режиссер: Алексей Козлов, Александр Устюгов

В ролях: Сергей Жарков, Александр Устюгов, Юрий Беляев, Борис Щербаков, Екатерина Климова, Сергей Селин, Андрей Горбачёв, Светлана Смирнова-Марцинкевич, Наталья Ткаченко, Никита Рогов, Андрей Аксёнов, Даниил Кокин, Евгений Филимонов, Ксения Ирхина, Вера Шпак, Андрей Белоцерковский, Елизавета Ковалёва, Елена Мартыненко, Яков Шамшин, Юлия Вознесенская, Сергей Яценюк, Иван Батарев, Андрей Шимко, Михаил Соловьев, Всеволод Цурило, Юлия Галкина, Павел Григорьев, Михаил Морозов, Иван Немцов


«Чума» — фильм о нас и о «девяностых». Рушится эпоха, на смену ей приходит другая. Мужчины — любят деньги, женщины — любят тех, у кого они есть!

Героям фильма нужно вписаться в обстоятельства новой жизни, но далеко не у всех это получается. Жизнь людей происходит на разных полюсах криминальной эпохи: взлет олигархов и обнищание народа. Эта жизнь раздаёт дивиденды не по заслугам и справедливости, а по законам волчьей стаи, где выживает сильнейший....





Качество :HDTVRip 1080p
Формат: MKV
Видео кодек: H264
Видео: 7227Кбит/сек,1920х1080(16.9),в 29.976кадр/сек,AVC(High@L4)(CABAC/2 Ref Frames)
Аудио Кодек:AC3
Аудио Russian Dolby Digital 5.1:AC3 , 384 Kbps, 48.0 KHz, 6 ch

Звуковая дорожка сделана путем наложения чистого голоса озвучивателей на центральный канал оригинальной дорожки. Качество идентично звуковой дорожке.


Общее
Уникальный идентификатор : 240395783645510628025846204741269096859 (0xB4DA8B37F77297F7909E156F11DC899B)
Полное имя : D:\НАШЕ КИНО\Ч У М А\Chuma_Devyanostye_2015_S01_RUS[NTV_Russia]_H264_DD5.1_N.B_HDTVRip_1080p\Chuma_Devyanostye_2015_S01E01-E02_RUS[NTV_Russia]_H264_DD5.1_N.B_HDTVRip_1080p.mkv
Формат : Matroska
Версия формата : Version 4 / Version 2
Размер файла : 4,82 Гбайт
Продолжительность : 1 ч. 28 м.
Режим общего битрейта : Переменный
Общий поток : 7765 Кбит/сек
Название фильма : Chuma_Devyanostye_2015_S01E01-E02_RUS[NTV_Russia]_H264_DD5.1_N.B_HDTVRip_1080p
Дата кодирования : UTC 2015-10-27 07:10:51
Программа кодирования : mkvmerge v8.5.1 ('Where you lead I will follow') 64bit
Библиотека кодирования : libebml v1.3.3 + libmatroska v1.4.4
DURATION : 01:28:47.738000000
NUMBER_OF_FRAMES : 166491
NUMBER_OF_BYTES : 255730176
_STATISTICS_WRITING_APP : mkvmerge v8.5.1 ('Where you lead I will follow') 64bit
_STATISTICS_WRITING_DATE_UTC : 2015-10-27 07:10:51
_STATISTICS_TAGS : BPS DURATION NUMBER_OF_FRAMES NUMBER_OF_BYTES

Видео
Идентификатор : 1
Формат : AVC
Формат/Информация : Advanced Video Codec
Профиль формата : High@L4
Параметр CABAC формата : Да
Параметр ReFrames формата : 2 кадра
Параметр GOP формата : M=2, N=15
Идентификатор кодека : V_MPEG4/ISO/AVC
Продолжительность : 1 ч. 28 м.
Вид битрейта : Переменный
Битрейт : 7227 Кбит/сек
Максимальный битрейт : 16,0 Мбит/сек
Ширина : 1920 пикселей
Высота : 1080 пикселей
Соотношение сторон : 16:9
Режим частоты кадров : Постоянный
Частота кадров : 29,970 кадров/сек
Цветовое пространство : YUV
Субдискретизация насыщенности : 4:2:0
Битовая глубина : 8 бит
Тип развёртки : Прогрессивная
Бит/(Пиксели*Кадры) : 0.116
Размер потока : 4,48 Гбайт (93%)
Язык : English
Default : Нет
Forced : Нет

Аудио
Идентификатор : 2
Формат : AC-3
Формат/Информация : Audio Coding 3
Расширение режима : CM (complete main)
Параметр Endianness формата : Big
Идентификатор кодека : A_AC3
Продолжительность : 1 ч. 28 м.
Вид битрейта : Постоянный
Битрейт : 384 Кбит/сек
Каналы : 6 каналов
Расположение каналов : Front: L C R, Side: L R, LFE
Частота : 48,0 КГц
Метод сжатия : С потерями
Размер потока : 244 Мбайт (5%)
Default : Нет
Forced : Нет









Внимание! Раздача пополняется по мере выхода новых серий!


Раздача ведётся путём добавления новых серий; при каждом добавлении создётся новый торрент.
Чтобы начать докачку новой серии, пользователям необходимо сделать следующее:
1. остановить скачивание,
2. удалить старый торрент у себя из клиента (старые серии удалять не надо),
3. скачать новый торрент и запустить его у себя в клиенте вместо старого, при этом указать клиенту путь в старую папку, куда и должно происходить скачивание новых серий.

Ваш клиент при этом должен произвести хеширование (проверку) старой папки (если не производит сам - помогите ему сделать это), и будет докачивать только те серии которых у вас ещё нет. Старые серии при этом не удаляются, а продолжают раздаваться!

Eсли вы уже удалили старые серии, то предотвратить повторную закачку старых серий можно, отжав галочку в соответсвующих местах при запуске нового торрента. По возможности, желательно не удалять старые серии как можно дольше, чтобы релизёр не столько продолжал раздавать старые серии, а смог сконцентрироваться на новых.

Совет для тех, кто не хочет ждать перехеширования:
Создайте ещё одну папку рядом с папкой сериала (рядом, а не в ней!!!). Каждую новую серию после удачной загрузки копируйте в новую папку так чтобы ваша основная папка всегда была пуста. Когда ваш новый торрент предложит вам закачать все файлы, выберете только последнюю. Для сидирования же укажите адрес новой папки.

Как закачать отдельный файл из торрента или докачать ранее пропущенные файлы торрента!

1. Открыть торрент
2. Снять галки с тех файлов торрента, которые мы не хотим закачивать. Оставляем только на нужных нам файлах (файле).
3. Нажать О.К.

В клиенте utorrent

Инструкция

1) Открыть торрент


2) Снять галки с тех файлов торрента, которые мы не хотим закачивать:

* либо вручную, снимая с каждого файла галку( скрин №1)
* либо, нажав кнопку "Снять метки (Select None)", сняв сразу со всех файлов(скрин №2)
№1

№2

Оставляем только на нужных нам файлах (файле).

3)Нажать О.К









Внимание!!! 07.11. 2015. РАЗДАЧА ОБНОВЛЕНА. ОБНОВИТЕ ТОРЕНТ ФАЙЛ.ПРИЯТНОГО ПРОСМОТРА .


Релиз от: Nikolai.Baranov & PIRATIYA








У вас нет необходимых прав для просмотра вложений в этом сообщении.

_________________

Легко быть оптимистом, когда судьба не валит с ног тяжелыми ударами, а лишь иногда легонько шлепает по заднице.


Вернуться к началу
 Профиль Отправить личное сообщение  
 
 [ 1 сообщение ] 
   Похожие темы   Автор   Ответы   Просмотры 
В этой теме нет новых непрочитанных сообщений. Чума / Девяностые (Алексей Козлов, Александр Устюгов) (Сезон 1 , Серии 1-24 из 24) [2015 , Драма, криминал , HDTVRip-AVC 400p]

Враг Нароода

362

В этой теме нет новых непрочитанных сообщений. Чума / Девяностые [1-3 серия из 24] (Алексей Козлов, Александр Устюгов) [драма, криминал, 2015] WEBRip

Dracon

1324

В этой теме нет новых непрочитанных сообщений. Чума [01-24 из 24] (Алексей Козлов, Александр Устюгов) [Драма, криминал, 2015] HDTVRip 720p

Dracon

533

В этой теме нет новых непрочитанных сообщений. Чума [01-24 из 24] (Алексей Козлов, Александр Устюгов) [Драма, криминал, 2015] HDTV 1080i

Dracon

235

В этой теме нет новых непрочитанных сообщений. Девяностые [01x01-24 из 24] (Алексей Козлов, Александр Устюгов) [драма, криминал, 2015] SATRip

Dracon

2197

В этой теме нет новых непрочитанных сообщений. Меч 2 + Пролог (Сезон 2, Серия 1-20 из 20) (Алексей Луканев) [2015, Детектив, криминал ,HDTVRip-AVC 1080p ]

Враг Нароода

663

В этой теме нет новых непрочитанных сообщений. Меч 2 + Пролог (Сезон 2, Серия 1-12 из 20) (Алексей Луканев) [2015, Детектив, криминал ,HDTVRip-AVC 1080p ]

Враг Нароода

409





Перейти:  

Для Мосгорсуда, Роскомнадзора и рекламодателей:: mosgorsud-torrent[собачка]yandex.ru