Торрент файл
скачать торрент магнет ссылка Добавлен: 22 окт 2015, 20:55
Размер: 45.18 ГБ
Сидеров: 12
Личеров: 13
Автор

СообщениеДобавлено: 22 окт 2015, 20:55 

Не в сети
Супермодератор
Аватара пользователя
Дата регистрации:
15 фев 2012, 16:44
Возраст: 27
Спасибо: 5130 / 2089
Сообщения: 17349
Годы выхода: 2007-2008
Жанр: драма, фантастика
Авторы идеи: Альфред Гоф /Alfred Gough/, Майлз Миллар /Miles Millar/
Режиссеры: Джеймс Маршалл /James Marshall/, Грег Биман /Greg Beeman/, Майк Рол /Mike Rohl/ и др.
В ролях: Том Уэллинг /Tom Welling/, Майкл Розенбаум /Michael Rosenbaum/, Кристин Крук /Kristin Kreuk/, Эллисон Мэк /Allison Mack/, Эрика Дюранс /Erica Durance/, Аарон Эшмор /Aaron Ashmore/, Лора Вандервурт /Laura Vandervoort/, Джон Гловер /John Glover/ и др.

О сериале:
1989 год, метеоритный дождь в городе Смолвиль наносит невиданные разрушения, а в бездетной семье жителей Смолвиля странным образом появляется маленький ребёнок — Кларк Кент.
Прошло много лет. Кларк уже учится в школе. Его ошеломляющие способности заставляют его чаще задуматься о том, кто он собственно такой. К тому же он влюблен в одноклассницу — Лану Лэнг, чьи родители пропали во время метеоритного дождя. Этот фактор значительно осложняет их отношения. Внимательные родители Кларка пытаются любым путём сберечь его секрет, даже возбраняют ему выступать в школьной футбольной команде.
Однажды Кларк спас жизнь молодого бизнесмена Лекса Лютера, когда машина бизнесмена, потеряв управление, падает с моста в реку. С этого обстоятельства и завязывается череда многообразных похождений супермена — Кларка Кента.



Страны: США, Канада
Студии: Tollin/Robbins Productions / Millar Gough Ink / Warner Bros. Television и др.
Продолжительность: 20 x ~ 00:43:00
Перевод:
Профессиональный (многоголосый, закадровый) - СТС
Профессиональный (многоголосый, закадровый) - AXN Sci-Fi

Файл
Кодек: H.264
Качество: BDRip 720p
Видео: 1280x720 at 23.976 fps, x264@L4.1, 2pass, ~6600 kbps avg
Аудио#1: Russian: 48 kHz, AC3, 2/0 (L,R) ch, ~192.00 kbps avg |Многоголосый закадровый, СТС|
Аудио#2: Russian: 48 kHz, AC3, 2/0 (L,R) ch, ~192.00 kbps avg |Многоголосый закадровый, AXN Sci-Fi|
Аудио#3: English: 48 kHz, AC3, 3/2 (L,C,R,l,r) + LFE ch, ~640.00 kbps avg |Оригинал|
Субтитры: Russian (Full - Satellite & Swan), English (Full)


General
Complete name : Smallville.S07E01.Bizarro.720p.Bluray.2xRus.Eng.Sub.mkv
Format : Matroska
Format version : Version 2
File size : 2.26 GiB
Duration : 42mn 12s
Overall bit rate : 7 666 Kbps
Movie name : Smallville Season 07 Episode 01 Bizarro - Бизарро [Russian - AXN-Sci-Fi | CTC + English + Sub]
Encoded date : UTC 2013-02-12 18:14:05
Writing application : mkvmerge v5.8.0 ('No Sleep / Pillow') built on Sep 2 2012 15:37:04
Writing library : libebml v1.2.3 + libmatroska v1.3.0

Video
ID : 1
Format : AVC
Format/Info : Advanced Video Codec
Format profile : High@L3.1
Format settings, CABAC : Yes
Format settings, ReFrames : 5 frames
Codec ID : V_MPEG4/ISO/AVC
Duration : 42mn 12s
Bit rate : 6 642 Kbps
Width : 1 280 pixels
Height : 720 pixels
Display aspect ratio : 16:9
Frame rate mode : Constant
Frame rate : 23.976 fps
Color space : YUV
Chroma subsampling : 4:2:0
Bit depth : 8 bits
Scan type : Progressive
Bits/(Pixel*Frame) : 0.301
Stream size : 1.91 GiB (85%)
Title : Smallville S07E01 Bizarro
Writing library : x264 core 65 r1040M 1591275
Encoding settings : cabac=1 / ref=5 / deblock=1:-2:-2 / analyse=0x3:0x113 / me=umh / subme=9 / psy_rd=1.0:0.0 / mixed_ref=1 / me_range=24 / chroma_me=1 / trellis=2 / 8x8dct=1 / cqm=0 / deadzone=21,11 / chroma_qp_offset=-2 / threads=3 / nr=0 / decimate=0 / mbaff=0 / bframes=6 / b_pyramid=1 / b_adapt=2 / b_bias=0 / direct=3 / wpredb=1 / keyint=250 / keyint_min=25 / scenecut=40(pre) / rc=2pass / bitrate=6642 / ratetol=2.0 / qcomp=0.60 / qpmin=10 / qpmax=51 / qpstep=4 / cplxblur=20.0 / qblur=0.5 / ip_ratio=1.40 / pb_ratio=1.30 / aq=1:1.00
Language : English
Default : Yes
Forced : No

Audio #1
ID : 2
Format : AC-3
Format/Info : Audio Coding 3
Mode extension : CM (complete main)
Format settings, Endianness : Big
Codec ID : A_AC3
Duration : 42mn 12s
Bit rate mode : Constant
Bit rate : 192 Kbps
Channel(s) : 2 channels
Channel positions : Front: L R
Sampling rate : 48.0 KHz
Compression mode : Lossy
Stream size : 58.0 MiB (3%)
Title : MVO CTC @ AC3 2.0 192 kbps
Language : Russian
Default : No
Forced : No

Audio #2
ID : 3
Format : AC-3
Format/Info : Audio Coding 3
Mode extension : CM (complete main)
Format settings, Endianness : Big
Codec ID : A_AC3
Duration : 42mn 12s
Bit rate mode : Constant
Bit rate : 192 Kbps
Channel(s) : 2 channels
Channel positions : Front: L R
Sampling rate : 48.0 KHz
Compression mode : Lossy
Stream size : 58.0 MiB (3%)
Title : MVO AXN Sci-Fi @ AC3 2.0 192 kbps
Language : Russian
Default : No
Forced : No

Audio #3
ID : 4
Format : AC-3
Format/Info : Audio Coding 3
Mode extension : CM (complete main)
Format settings, Endianness : Big
Codec ID : A_AC3
Duration : 42mn 12s
Bit rate mode : Constant
Bit rate : 640 Kbps
Channel(s) : 6 channels
Channel positions : Front: L C R, Side: L R, LFE
Sampling rate : 48.0 KHz
Compression mode : Lossy
Stream size : 193 MiB (8%)
Title : Original
Language : English
Default : No
Forced : No

Text #1
ID : 5
Format : UTF-8
Codec ID : S_TEXT/UTF8
Codec ID/Info : UTF-8 Plain Text
Title : by Satellite
Language : Russian
Default : No
Forced : No

Text #2
ID : 6
Format : UTF-8
Codec ID : S_TEXT/UTF8
Codec ID/Info : UTF-8 Plain Text
Title : Original
Language : English
Default : No
Forced : No
01. Bizzarro / Бизарро
02. Kara / Кара
03. Fierce / Ужасная погода
04. Cure / Исцеление
05. Action / Мотор
06. Lara / Лара
07. Wrath / Гнев
08. Blue / Печаль
09. Gemini / Близнец
10. Persona / Маска
11. Siren / Сирена
11. Fracture / Перелом
13. Hero / Герой
14. Traveler / Странник
15. Veritas / Вэритас
16. Descent / Спуск
17. Sleeper / Обещание
18. Apocalypse / Апокалипсис
19. Quest / Поиски
20. Arctic / Арктика


_________________



реклама партнёра


Вернуться к началу
 Профиль Отправить личное сообщение  
 
   Похожие торренты   Автор   Торрент   Размер 
В этой теме нет новых непрочитанных сообщений. Тайны Смолвиля / Smallville [S06] [драма, фантастика, 2006-2007] BDRip 720p, Mvo+Sub [СТС / AXN Sci-F]

salma3

9 | 8

49.87 ГБ

В этой теме нет новых непрочитанных сообщений. Тайны Смолвиля / Smallville [S08] [драма, фантастика, 2008-2009] BDRip 720p, Mvo+Sub [СТС / AXN Sci-F]

salma3

6 | 13

49.77 ГБ

В этой теме нет новых непрочитанных сообщений. Тайны Смолвиля / Smallville [S04] [драма, фантастика, 2004-2005] WEB-DL 720p, Mvo+Sub [СТС]

salma3

38 | 26

29.08 ГБ

В этой теме нет новых непрочитанных сообщений. Тайны Смолвиля / Smallville [S03] [драма, фантастика, 2003-2004] WEB-DL 720p, Mvo+Sub [СТС]

salma3

20 | 25

29.42 ГБ

В этой теме нет новых непрочитанных сообщений. Тайны Смолвиля / Smallville [S02] [драма, фантастика, 2002-2003] WEB-DL 720p, Mvo+Sub [СТС]

salma3

30 | 35

30.76 ГБ

В этой теме нет новых непрочитанных сообщений. Тайны Смолвиля / Smallville [S05] [драма, фантастика, 2005-2006] HDDVDRip 720p, Mvo+Sub [СТС / AXN Sci-F]

salma3

13 | 12

34.53 ГБ

В этой теме нет новых непрочитанных сообщений. Тайны Смолвиля / Smallville [S01-10] [фантастика, драма, мелодрама, приключения, 2001-2011] WEB-DLRip, DVDRip, HDRip, Mvo [СТС]

salma3

83 | 206

79.92 ГБ


Начать новую тему Ответить на тему  [ 1 сообщение ] 




Для Мосгорсуда, Роскомнадзора и рекламодателей:: mosgorsud-torrent[собачка]yandex.ru