Торрент файл
скачать торрент магнет ссылка Добавлен: 09 окт 2015, 20:32
Размер: 41.04 ГБ
Сидеров: 3
Личеров: 0
Автор

СообщениеДобавлено: 09 окт 2015, 20:34 

Не в сети
Аватара пользователя
Дата регистрации:
09 авг 2014, 12:07
Спасибо: 49 / 1
Сообщения: 156
Откуда: КРАСНОГОРСК
Нюхач Сезон 1-2, Серии 1-16 из 16



Год выпуска:2013-2015
Выпущено: Украина, «Film.ua Production»
Жанр:Детектив
Продолжительность: 00:54:00
Сезон: 1-2
Серии: 1-16
Количество серий в сезоне: 16
Перевод :Не требуется
Субтитры: Нет





Режиссер: Артем Литвиненко

В ролях: Кирилл Кяро, Иван Оганесян, Николай Чиндяйкин, Агне Грудите, Мария Аниканова, Нина Гогаева, Павел Кузьмин, Сергей Юшкевич, Игорь Ботвин, Александр Фисенко, Денис Мартынов (II), Алексей Зорин, Станислав Москвин, Вадим Лялько, Владимир Коваль (II), Татьяна Комарова, Елена Сикорская, Александр Зиневич, Сергей Лесков, Олег Ким (IV), Виктор Щур, Артём Червоношеенко, Виталий Копилец, Игорь Дяченко, Александр Мартыщенко, Александр Остапенко, Евгений Вашетин, Роман Джура, Константин Пустовалов, Артем Каюн, Алан Блажевич, Кристина Казинская, Сергей Карякин, Сергей Иванюк, Николай Рытенко, Андрей Финягин, Любовь Виролайнен мл., Людмила Харитонова, Григорий Багров, Игорь Головин, Антон Кукушкин, Владимир Балдов


Каждое преступление имеет свой запах… В новом сезоне захватывающего сериала Нюхач и Виктор Лебедев продолжают служить правосудию. Дар Нюхача и опыт Лебедева делают их тандем сильным и очень эффективным. Но им приходится сталкиваться не только с рядовыми преступниками: за каждым шагом Нюхача и Виктора следит таинственная организация, и им приходится распутывать целую сеть из тайн, загадок и преступлений. Сумеет ли их дружба выдержать все испытания? И смогут ли они победить таинственного врага?




1СЕЗОН
Качество :BD-Remux 1080p
Формат: MKV
Видео кодек: H264
Видео: 6216Кбит/сек,1920х1080(16.9),в 29.976кадр/сек,AVC(High@L4)(CABAC/2 Ref Frames)
Аудио Кодек:AC3
Аудио Russian Dolby Digital 5.1:AC3 , 384 Kbps, 48.0 KHz, 6 ch
2СЕЗОН
Качество :HDTVRip 1080p
Формат: MKV
Видео кодек: H264
Видео: 6773Кбит/сек,1920х1080(16.9),в 29.976кадр/сек,AVC(High@L4)(CABAC/2 Ref Frames)
Аудио Кодек:AC3
Аудио Russian Dolby Digital 5.1:AC3 , 384 Kbps, 48.0 KHz, 6 ch



Звуковая дорожка сделана путем наложения чистого голоса озвучивателей на центральный канал оригинальной дорожки. Качество идентично звуковой дорожке.


Общее
Уникальный идентификатор : 180126932260055418590706814643848597151 (0x87832F6D65CA5CE2A43AFF33F95BCE9F)
Полное имя : E:\К ИНО\Н А Ш Е К И Н О\Нюхач\Nyuhach_S01_-_S02_H264_DD5.1_N.B_BD-Remux_HDTVRip_1080p\S01\Nyuhach_2013_S01E01-Е02_H264_DD5.1_N.B_BD-Remux_1080p.mkv
Формат : Matroska
Версия формата : Version 4 / Version 2
Размер файла : 4,59 Гбайт
Продолжительность : 1 ч. 37 м.
Режим общего битрейта : Переменный
Общий поток : 6734 Кбит/сек
Название фильма : Nyuhach_2013_S01E01-Е02_H264_DD5.1_N.B_BD-Remux_1080p
Дата кодирования : UTC 2015-10-08 14:50:15
Программа кодирования : mkvmerge v8.3.0 ('Over the Horizon') 64bit
Библиотека кодирования : libebml v1.3.1 + libmatroska v1.4.2
DURATION : 01:37:40.266000000
NUMBER_OF_FRAMES : 183132
NUMBER_OF_BYTES : 281290752
_STATISTICS_WRITING_APP : mkvmerge v8.3.0 ('Over the Horizon') 64bit
_STATISTICS_WRITING_DATE_UTC : 2015-10-08 14:50:15
_STATISTICS_TAGS : BPS DURATION NUMBER_OF_FRAMES NUMBER_OF_BYTES

Видео
Идентификатор : 1
Формат : AVC
Формат/Информация : Advanced Video Codec
Профиль формата : High@L4
Параметр CABAC формата : Да
Параметр ReFrames формата : 2 кадра
Параметр GOP формата : M=2, N=15
Идентификатор кодека : V_MPEG4/ISO/AVC
Продолжительность : 1 ч. 37 м.
Вид битрейта : Переменный
Битрейт : 6216 Кбит/сек
Максимальный битрейт : 16,0 Мбит/сек
Ширина : 1920 пикселей
Высота : 1080 пикселей
Соотношение сторон : 16:9
Режим частоты кадров : Постоянный
Частота кадров : 29,970 кадров/сек
Цветовое пространство : YUV
Субдискретизация насыщенности : 4:2:0
Битовая глубина : 8 бит
Тип развёртки : Прогрессивная
Бит/(Пиксели*Кадры) : 0.100
Размер потока : 4,24 Гбайт (92%)
Язык : English
Default : Нет
Forced : Нет

Аудио
Идентификатор : 2
Формат : AC-3
Формат/Информация : Audio Coding 3
Расширение режима : CM (complete main)
Параметр Endianness формата : Big
Идентификатор кодека : A_AC3
Продолжительность : 1 ч. 37 м.
Вид битрейта : Постоянный
Битрейт : 384 Кбит/сек
Каналы : 6 каналов
Расположение каналов : Front: L C R, Side: L R, LFE
Частота : 48,0 КГц
Метод сжатия : С потерями
Размер потока : 268 Мбайт (6%)
Default : Нет
Forced : Нет


Общее
Уникальный идентификатор : 243799800067265482577854656916096999499 (0xB76A222F948A56F0B75FA1C3B36EE04B)
Полное имя : E:\К ИНО\Н А Ш Е К И Н О\Нюхач\Nyuhach_S01_-_S02_H264_DD5.1_N.B_BD-Remux_HDTVRip_1080p\S02\Nyuhach_2015_S02E01-Е02_H264_DD5.1_N.B_HDTVRip_1080p.mkv
Формат : Matroska
Версия формата : Version 4 / Version 2
Размер файла : 5,56 Гбайт
Продолжительность : 1 ч. 48 м.
Режим общего битрейта : Переменный
Общий поток : 7302 Кбит/сек
Название фильма : Nyuhach_2015_S02E01-Е02_H264_DD5.1_N.B_HDTVRip_1080p
Дата кодирования : UTC 2015-10-06 23:19:56
Программа кодирования : mkvmerge v8.3.0 ('Over the Horizon') 64bit
Библиотека кодирования : libebml v1.3.1 + libmatroska v1.4.2
DURATION : 01:48:57.575000000
NUMBER_OF_FRAMES : 204297
NUMBER_OF_BYTES : 313800192
_STATISTICS_WRITING_APP : mkvmerge v8.3.0 ('Over the Horizon') 64bit
_STATISTICS_WRITING_DATE_UTC : 2015-10-06 23:19:56
_STATISTICS_TAGS : BPS DURATION NUMBER_OF_FRAMES NUMBER_OF_BYTES

Видео
Идентификатор : 1
Формат : AVC
Формат/Информация : Advanced Video Codec
Профиль формата : High@L4
Параметр CABAC формата : Да
Параметр ReFrames формата : 2 кадра
Параметр GOP формата : M=2, N=15
Идентификатор кодека : V_MPEG4/ISO/AVC
Продолжительность : 1 ч. 48 м.
Вид битрейта : Переменный
Битрейт : 6773 Кбит/сек
Максимальный битрейт : 16,0 Мбит/сек
Ширина : 1920 пикселей
Высота : 1080 пикселей
Соотношение сторон : 16:9
Режим частоты кадров : Постоянный
Частота кадров : 29,970 кадров/сек
Цветовое пространство : YUV
Субдискретизация насыщенности : 4:2:0
Битовая глубина : 8 бит
Тип развёртки : Прогрессивная
Бит/(Пиксели*Кадры) : 0.109
Размер потока : 5,15 Гбайт (93%)
Язык : English
Default : Нет
Forced : Нет

Аудио
Идентификатор : 2
Формат : AC-3
Формат/Информация : Audio Coding 3
Расширение режима : CM (complete main)
Параметр Endianness формата : Big
Идентификатор кодека : A_AC3
Продолжительность : 1 ч. 48 м.
Вид битрейта : Постоянный
Битрейт : 384 Кбит/сек
Каналы : 6 каналов
Расположение каналов : Front: L C R, Side: L R, LFE
Частота : 48,0 КГц
Метод сжатия : С потерями
Размер потока : 299 Мбайт (5%)
Default : Нет
Forced : Нет


[







1СЕЗОН

2СЕЗОН


1. Открыть торрент
2. Снять галки с тех файлов торрента, которые мы не хотим закачивать. Оставляем только на нужных нам файлах (файле).
3. Нажать О.К.

В клиенте utorrent

Инструкция

1) Открыть торрент


2) Снять галки с тех файлов торрента, которые мы не хотим закачивать:

* либо вручную, снимая с каждого файла галку( скрин №1)
* либо, нажав кнопку "Снять метки (Select None)", сняв сразу со всех файлов(скрин №2)
№1

№2

Оставляем только на нужных нам файлах (файле).

3)Нажать О.К







Релиз от: Nikolai.Baranov
[








_________________

Легко быть оптимистом, когда судьба не валит с ног тяжелыми ударами, а лишь иногда легонько шлепает по заднице.



реклама партнёра


Вернуться к началу
 Профиль Отправить личное сообщение  
 
   Похожие торренты   Автор   Торрент   Размер 
В этой теме нет новых непрочитанных сообщений. Нюхач / NYUHACH (серия 1-8 из 8) (Артем Литвиненко) [2013, Детектив , HDTVRip-AVC 1080p] [DD5.1]

Nikolai.Baranov

0 | 2

16.24 ГБ

В этой теме нет новых непрочитанных сообщений. Нюхач [S02] (Артем Литвиненко) [Детектив, 2015] WEB-DL 1080p

Dracon

443 | 75

15.06 ГБ

В этой теме нет новых непрочитанных сообщений. Нюхач [S02] (Артем Литвиненко) [Детектив, 2015] WEB-DLRip

Dracon

9884 | 1239

5.86 ГБ

В этой теме нет новых непрочитанных сообщений. Нюхач [S02] (Артем Литвиненко) [Детектив, 2015] WEB-DL 720p

Dracon

1237 | 189

9.02 ГБ

В этой теме нет новых непрочитанных сообщений. Нюхач-2 [Серия 1-2 из 8] (Артем Литвиненко) [Детектив, 2015] SATRip

Dracon

49 | 10

1.5 ГБ

В этой теме нет новых непрочитанных сообщений. Нюхач [02х01-08 из 08] (Артем Литвиненко) [Детектив, 2015] HDTV 1080i

Dracon

772 | 184

22.66 ГБ

В этой теме нет новых непрочитанных сообщений. Нюхач [01-08 из 08] [Детектив, 2013] HDTVRip

Dracon

34 | 3

5.82 ГБ


Начать новую тему Ответить на тему  [ 1 сообщение ] 




Для Мосгорсуда, Роскомнадзора и рекламодателей:: mosgorsud-torrent[собачка]yandex.ru