Торрент файл
скачать торрент магнет ссылка Добавлен: 07 сен 2015, 14:40
Размер: 26.43 ГБ
Сидеров: 1
Личеров: 0
Автор

СообщениеДобавлено: 07 сен 2015, 14:42 

Не в сети
Аватара пользователя
Дата регистрации:
09 авг 2014, 12:07
Спасибо: 49 / 1
Сообщения: 156
Откуда: КРАСНОГОРСК



Мистер Робот / Mr.Robot Сезон 1,Серия 1-10 из 10





Год выпуска:2015
Выпущено: США,Universal Cable Productions
Жанр: Криминальная драма
Сезон: 1
Серии: 1-10
Количество серий в сезоне: 10
Продолжительность: 00:45:16
Озвучка 1: Профессиональный многоголосый -LostFilm
Озвучка 2: Профессиональный двухголосый -Kubik_V_Kube
Озвучка 3: Профессиональный многоголосый - NewStudio
Озвучка 4: Профессиональный многоголосый - BaibaKo
Озвучка 5: Профессиональный многоголосый - Ideafilm
Субтитры: :Русские, Английские



Режиссер: Нильс Арден Оплев

В ролях: Рэми Малек, Брюс Олтмен, Майкл Бушеми, Карли Чаикин, Самрат Чакрабарти, Портия Даблдэй, Маурицио Ферриньо, Майкл Гилл, Джереми С. Холм, Диллон Мэтьюз


История молодого программиста Эллиота, страдающего диссоциальным расстройством личности и решившего, что единственный приемлемый для него способ взаимодействия с людьми — это профессия хакера. Таким образом, он быстро оказывается в том самом месте, где пересекаются интересы его работодателя — фирмы, занимающейся кибербезопасностью, — и подпольных организаций, которые пытаются его завербовать с целью обрушения самых могучих американских корпораций.




Качество : HDTVRip , WEB-DLRip-AVC 1080p
Формат: MKV
Видео кодек: H264
Видео: 4732Кбит/сек,1920х1080(16.9),в 23.976кадр/сек,AVC(High@L4)(CABAC/4 Ref Frames)
Аудио Кодек:AC3
Аудио #1:AC3 , 448 Kbps, 48.0 KHz, 6 ch- -LostFilm
Аудио #2: AC3, 448 Kbps, 48.0 KHz, 6 ch - -Kubik_V_Kube
Аудио #3: AC3, 448 Kbps, 48.0 KHz, 6 ch - - NewStudio
Аудио #4: AC3, 448 Kbps, 48.0 KHz, 6 ch - - BaibaKo
Аудио #5: AC3, 448 Kbps, 48.0 KHz, 6 ch - - Ideafilm
Аудио #6: AC3, 448 Kbps, 48.0 KHz,6 ch - - English

Звуковая дорожка сделана путем наложения чистого голоса озвучивателей на центральный канал оригинальной дорожки. Качество идентично звуковой дорожке.



01. ПРИВЕТДРУГ.MOV (HELLOFRIEND.MOV)
02. ЕДИНИЦЫ-И-НУЛИ.MPEG (ONES-AND-ZEROES.MPEG)
03. д3баг.mkv (d3bug.mkv)
04. д3м0ны.mp4 (da3m0ns.mp4)
05. уя3вим0сти.wmv (3xpl0its.wmv)
06. хр4брый-путник.asf (br4ve-trave1er.asf)
07 исх0дный-к0д.flv (v1ew-s0urce.flv)
08 б3лаяр0за.m4v (wh1ter0se.m4v)
09 зерк4л0.qt (m1rr0r1ng.qt)
10 Нулев0й-день.avi (zer0-day.avi)



Общее
Общее
Уникальный идентификатор : 254252365370139363831402539604245946698 (0xBF4739719B881477A3B7D8252C97214A)
Полное имя : D:\С Е Р И А Л Ы\Мистер Робот\Mr.Robot_S01_RUS_ENG[LostFilm_Kubik_V_Kube_NewStudio_ BaibaKo_Ideafilm]_H264_DD5.1_N.B_WEB-DLRip_1080p\Mr.Robot_S01E01_RUS_ENG[LostFilm_Kubik_V_Kube_NewStudio_ BaibaKo_Ideafilm]_H264_DD5.1_N.B_WEB-DLRip_1080p.mkv
Формат : Matroska
Версия формата : Version 4 / Version 2
Размер файла : 3,43 Гбайт
Продолжительность : 1 ч. 4 м.
Общий поток : 7571 Кбит/сек
Дата кодирования : UTC 2015-08-13 15:21:38
Программа кодирования : mkvmerge v8.2.0 ('World of Adventure') 64bit
Библиотека кодирования : libebml v1.3.1 + libmatroska v1.4.2
DURATION : 01:04:16.184000000
NUMBER_OF_FRAMES : 1107
NUMBER_OF_BYTES : 33403
_STATISTICS_WRITING_APP : mkvmerge v8.2.0 ('World of Adventure') 64bit
_STATISTICS_WRITING_DATE_UTC : 2015-08-13 15:21:38
_STATISTICS_TAGS : BPS DURATION NUMBER_OF_FRAMES NUMBER_OF_BYTES

Видео
Идентификатор : 1
Формат : AVC
Формат/Информация : Advanced Video Codec
Профиль формата : High@L4
Параметр CABAC формата : Да
Параметр ReFrames формата : 4 кадра
Идентификатор кодека : V_MPEG4/ISO/AVC
Продолжительность : 1 ч. 4 м.
Битрейт : 4732 Кбит/сек
Ширина : 1920 пикселей
Высота : 1080 пикселей
Соотношение сторон : 16:9
Режим частоты кадров : Постоянный
Частота кадров : 23,976 кадра/сек
Цветовое пространство : YUV
Субдискретизация насыщенности : 4:2:0
Битовая глубина : 8 бит
Тип развёртки : Прогрессивная
Бит/(Пиксели*Кадры) : 0.095
Размер потока : 2,14 Гбайт (63%)
Язык : English
Default : Нет
Forced : Нет
Цветовой диапазон : Limited
Основные цвета : BT.709
Характеристики трансфера : BT.709
Коэффициенты матрицы : BT.709

Аудио #1
Идентификатор : 2
Формат : AC-3
Формат/Информация : Audio Coding 3
Расширение режима : CM (complete main)
Параметр Endianness формата : Big
Идентификатор кодека : A_AC3
Продолжительность : 1 ч. 4 м.
Вид битрейта : Постоянный
Битрейт : 448 Кбит/сек
Каналы : 6 каналов
Расположение каналов : Front: L C R, Side: L R, LFE
Частота : 48,0 КГц
Метод сжатия : С потерями
Размер потока : 208 Мбайт (6%)
Default : Да
Forced : Нет

Аудио #2
Идентификатор : 3
Формат : AC-3
Формат/Информация : Audio Coding 3
Расширение режима : CM (complete main)
Параметр Endianness формата : Big
Идентификатор кодека : A_AC3
Продолжительность : 1 ч. 4 м.
Вид битрейта : Постоянный
Битрейт : 448 Кбит/сек
Каналы : 6 каналов
Расположение каналов : Front: L C R, Side: L R, LFE
Частота : 48,0 КГц
Метод сжатия : С потерями
Размер потока : 208 Мбайт (6%)
Default : Нет
Forced : Нет

Аудио #3
Идентификатор : 4
Формат : AC-3
Формат/Информация : Audio Coding 3
Расширение режима : CM (complete main)
Параметр Endianness формата : Big
Идентификатор кодека : A_AC3
Продолжительность : 1 ч. 4 м.
Вид битрейта : Постоянный
Битрейт : 448 Кбит/сек
Каналы : 6 каналов
Расположение каналов : Front: L C R, Side: L R, LFE
Частота : 48,0 КГц
Метод сжатия : С потерями
Размер потока : 208 Мбайт (6%)
Default : Нет
Forced : Нет

Аудио #4
Идентификатор : 5
Формат : AC-3
Формат/Информация : Audio Coding 3
Расширение режима : CM (complete main)
Параметр Endianness формата : Big
Идентификатор кодека : A_AC3
Продолжительность : 1 ч. 4 м.
Вид битрейта : Постоянный
Битрейт : 448 Кбит/сек
Каналы : 6 каналов
Расположение каналов : Front: L C R, Side: L R, LFE
Частота : 48,0 КГц
Метод сжатия : С потерями
Размер потока : 208 Мбайт (6%)
Default : Нет
Forced : Нет

Аудио #5
Идентификатор : 6
Формат : AC-3
Формат/Информация : Audio Coding 3
Расширение режима : CM (complete main)
Параметр Endianness формата : Big
Идентификатор кодека : A_AC3
Продолжительность : 1 ч. 4 м.
Вид битрейта : Постоянный
Битрейт : 448 Кбит/сек
Каналы : 6 каналов
Расположение каналов : Front: L C R, Side: L R, LFE
Частота : 48,0 КГц
Метод сжатия : С потерями
Размер потока : 208 Мбайт (6%)
Default : Нет
Forced : Нет

Аудио #6
Идентификатор : 7
Формат : AC-3
Формат/Информация : Audio Coding 3
Расширение режима : CM (complete main)
Параметр Endianness формата : Big
Идентификатор кодека : A_AC3
Продолжительность : 1 ч. 4 м.
Вид битрейта : Постоянный
Битрейт : 448 Кбит/сек
Каналы : 6 каналов
Расположение каналов : Front: L C R, Side: L R, LFE
Частота : 48,0 КГц
Метод сжатия : С потерями
Размер потока : 208 Мбайт (6%)
Default : Нет
Forced : Нет

Текст #1
Идентификатор : 8
Формат : UTF-8
Идентификатор кодека : S_TEXT/UTF8
Идентификатор кодека/Информация : UTF-8 Plain Text
Default : Да
Forced : Нет

Текст #2
Идентификатор : 9
Формат : UTF-8
Идентификатор кодека : S_TEXT/UTF8
Идентификатор кодека/Информация : UTF-8 Plain Text
Default : Нет
Forced : Нет










1. Открыть торрент
2. Снять галки с тех файлов торрента, которые мы не хотим закачивать. Оставляем только на нужных нам файлах (файле).
3. Нажать О.К.

В клиенте utorrent

Инструкция

1) Открыть торрент


2) Снять галки с тех файлов торрента, которые мы не хотим закачивать:

* либо вручную, снимая с каждого файла галку( скрин №1)
* либо, нажав кнопку "Снять метки (Select None)", сняв сразу со всех файлов(скрин №2)
№1

№2

Оставляем только на нужных нам файлах (файле).

3)Нажать О.К








Внимание!!! 07.09. 2015. РАЗДАЧА ОБНОВЛЕНА.ФИНАЛ СЕЗОНА. ОБНОВИТЕ ТОРЕНТ ФАЙЛ.ПРИЯТНОГО ПРОСМОТРА .


Релиз от: Nikolai.Baranov







_________________

Легко быть оптимистом, когда судьба не валит с ног тяжелыми ударами, а лишь иногда легонько шлепает по заднице.



реклама партнёра


Вернуться к началу
 Профиль Отправить личное сообщение  
 
   Похожие торренты   Автор   Торрент   Размер 
В этой теме нет новых непрочитанных сообщений. Мистер Робот / Mr.Robot(Сезон 1,Серия 1-8 из 10) (Нильс Арден Оплев) [2005, Криминальная драма , HDTVRip , WEB-DLRip-AVC 1080p] [DD5.1] [MVO] [LostFilm ,Kubik V Kube , NewStudio , BaibaKo , Ideafilm + Subs Rus,ENG]

Враг Нароода

10 | 17

20.45 ГБ

В этой теме нет новых непрочитанных сообщений. Мистер Робот / Mr.Robot(Сезон 1,Серия 1-9 из 10) (Нильс Арден Оплев) [2005, Криминальная драма , HDTVRip , WEB-DLRip-AVC 1080p] [DD5.1] [MVO] [LostFilm ,Kubik V Kube , NewStudio , BaibaKo , Ideafilm + Subs Rus,ENG]

Враг Нароода

2 | 1

23.41 ГБ

В этой теме нет новых непрочитанных сообщений. Мистер Робот / Mr. Robot (Сезон 2, Серия 1-12 из 12 ) (Нильс Арден Оплев) [2016, Детектив, Драма, Криминал , WEB-DLRip 1080p ] [MVO] [LostFilm,NewStudiо,BaibaKo,Kravec,OMSKBIRD,Kubik V Kube, English + Subs Rus,ENG]

Враг Нароода

0 | 0

41.05 ГБ

В этой теме нет новых непрочитанных сообщений. Мистер Робот / Mr. Robot (Сезон 2, Серия 1-8 из 13) (Нильс Арден Оплев) [2016, Детектив, Драма, Криминал , WEB-DLRip 1080p ] [MVO] [LostFilm,NewStudiо,BaibaKo,Kravec,OMSKBIRD,FocusStudiо,Kubik V Kube, English + Subs Rus,ENG]

Враг Нароода

1 | 2

31.72 ГБ

В этой теме нет новых непрочитанных сообщений. Мистер Робот / Mr. Robot [01х01-10 из 10] (Нильс Арден Оплев) [драма, криминал, 2015] WEB-DLRip [IDEAFILM]

Dracon

150 | 132

5.83 ГБ

В этой теме нет новых непрочитанных сообщений. Мистер Робот / Mr. Robot [01х01-10 из 10] (Нильс Арден Оплев) [драма, криминал, 2015] WEB-DLRip [NewStudio]

Dracon

11 | 13

5.82 ГБ

В этой теме нет новых непрочитанных сообщений. Мистер Робот / Mr. Robot [01х01-10 из 10] (Нильс Арден Оплев) [2015, драма, криминал, WEB-DLRip | LostFilm]

Dracon

130 | 66

3.46 ГБ


Начать новую тему Ответить на тему  [ 1 сообщение ] 




Для Мосгорсуда, Роскомнадзора и рекламодателей:: mosgorsud-torrent[собачка]yandex.ru