Торрент файл
скачать торрент магнет ссылка Добавлен: 04 сен 2015, 15:20
Размер: 38.56 ГБ
Сидеров: 4
Личеров: 6
Автор

СообщениеДобавлено: 04 сен 2015, 15:23 

Не в сети
Аватара пользователя
Дата регистрации:
09 авг 2014, 12:07
Спасибо: 48 / 1
Сообщения: 156
Откуда: КРАСНОГОРСК


Ганнибал / Hannibal Сезон 3, Серия 1-13 из 13



Год выпуска:2015
Выпущено: США, Dino De Laurentiis Productions, Doheny Productions Inc., Gaumont International Television
Жанр: Детектив, криминал, драма
Сезон: 3
Серии: 1-13
Количество серий в сезоне: 13
Продолжительность: 00:43:00
Озвучка 1: Профессиональный многоголосый -Sony Sci Fi
Озвучка 2: Профессиональный многоголосый -AlexFilm
Озвучка 3: Профессиональный многоголосый - NewStudio
Озвучка 4: Профессиональный многоголосый - BaibaKo
Озвучка 5: Профессиональный многоголосый - Jaskier
Субтитры: :Русские, Английские





Режиссер: Гильермо Наварро, Майкл Раймер, Дэвид Слэйд

В ролях:Мадс Миккельсен, Хью Дэнси, Каролин Давернас, Лара Жан Чоростецки, Аарон Абрамс, Лоуренс Фишборн, Эттьенн Парк, Скотт Томпсон, Торианна Ли, Демор Барнс



Грэхэм — одаренный профайлер, который вместе с ФБР разыскивает серийного убийцу. Уникальный способ мышления Грэма дает ему удивительную способность глубоко проникаться чувствами другого человека, даже психопата. Он может понять, что ими движет. Но когда ум преследуемого убийцы оказывается слишком сложным, он прибегает к помощи доктора Лектера, одного из ведущих психиатрических умов в стране.



Качество : HDTVRip , WEB-DLRip-AVC 1080p
Формат: MKV
Видео кодек: H264
Видео: 7423Кбит/сек,1920х1080(16.9),в 23.976кадр/сек,AVC(PAL)(High@L4)(CABAC/3 Ref Frames)
Аудио Кодек:AC3
Аудио #1:AC3 , 384 Kbps, 48.0 KHz, 6 ch- -Sony Sci Fi
Аудио #2: AC3, 384 Kbps, 48.0 KHz, 6 ch - -AlexFilm
Аудио #3: AC3, 384 Kbps, 48.0 KHz, 6 ch - - NewStudio
Аудио #4: AC3, 384 Kbps, 48.0 KHz, 6 ch - - BaibaKo
Аудио #5: AC3, 384 Kbps, 48.0 KHz, 6 ch - - Jaskier
Аудио #6: AC3, 384 Kbps, 48.0 KHz,6 ch - - English





Звуковая дорожка сделана путем наложения чистого голоса озвучивателей на центральный канал оригинальной дорожки. Качество идентично звуковой дорожке.



01 Антипасто / Antipasto
02. Весна / Primavera
03. Второе блюдо / Secondo
04. Аперитив / Apertivo
05. Гарнир / Contorno
06. Сладкий / Dolce
07. Дижестив / Digestivo
08. Великий Красный Дракон / Great Red Dragon
09. ...И жена облачённая солнцем / ...And the Woman Clothed with the Sun
10. ...И жена облечённая в солнце / .... And the Woman Clothed in Sun
11 ....И чудовище из моря / ...And the Beast From the Sea
12. Число Зверя 666 / The Number of the Beast Is 666
13. : Ярость агнца / The Wrath of the Lamb



Общее
Уникальный идентификатор : 174535200344425062790729058727945821348 (0x834E41C22FA6EE2553BDCD7F65F3DCA4)
Полное имя : E:\К И Н О\УЖАСЫ\ГАНИБАЛ\HANNIBAL_2015_S03_RUS_ENG[SciFi_AlexFilm_NewStudio_ BaibaKo]_H264_DD5.1_Nikolai.Baranov_HDTVRip-AVC_1080p\Hannibal_S03E01_2015_RUS_ENG[SciFi_AlexFilm_NewStudio_ BaibaKo]_H264_DD5.1_N.B_HDTVRip-AVC_1080p.mkv
Формат : Matroska
Версия формата : Version 1
Размер файла : 2,87 Гбайт
Продолжительность : 43 м.
Режим общего битрейта : Переменный
Общий поток : 9532 Кбит/сек
Программа кодирования : DivXMKVMux 9.9.13.1955
Библиотека кодирования : libDivXMediaFormat 4.0.0.0578

Видео
Идентификатор : 1
Формат : AVC
Формат/Информация : Advanced Video Codec
Профиль формата : High@L4
Параметр CABAC формата : Да
Параметр ReFrames формата : 3 кадра
Идентификатор кодека : V_MPEG4/ISO/AVC
Продолжительность : 43 м.
Вид битрейта : Переменный
Битрейт : 7423 Кбит/сек
Максимальный битрейт : 20,0 Мбит/сек
Ширина : 1920 пикселей
Высота : 1080 пикселей
Соотношение сторон : 16:9
Режим частоты кадров : Постоянный
Частота кадров : 23,976 кадра/сек
Стандарт вещания : PAL
Цветовое пространство : YUV
Субдискретизация насыщенности : 4:2:0
Битовая глубина : 8 бит
Тип развёртки : Прогрессивная
Бит/(Пиксели*Кадры) : 0.149
Размер потока : 2,24 Гбайт (78%)
Язык : English
Default : Да
Forced : Нет
Цветовой диапазон : Limited
Основные цвета : BT.709
Характеристики трансфера : BT.709
Коэффициенты матрицы : BT.709

Аудио #1
Идентификатор : 2
Формат : AC-3
Формат/Информация : Audio Coding 3
Расширение режима : CM (complete main)
Параметр Endianness формата : Big
Идентификатор кодека : A_AC3
Продолжительность : 43 м.
Вид битрейта : Постоянный
Битрейт : 384 Кбит/сек
Каналы : 6 каналов
Расположение каналов : Front: L C R, Side: L R, LFE
Частота : 48,0 КГц
Битовая глубина : 16 бит
Метод сжатия : С потерями
Размер потока : 118 Мбайт (4%)
Язык : English
Default : Да
Forced : Нет

Аудио #2
Идентификатор : 3
Формат : AC-3
Формат/Информация : Audio Coding 3
Расширение режима : CM (complete main)
Параметр Endianness формата : Big
Идентификатор кодека : A_AC3
Продолжительность : 43 м.
Вид битрейта : Постоянный
Битрейт : 384 Кбит/сек
Каналы : 6 каналов
Расположение каналов : Front: L C R, Side: L R, LFE
Частота : 48,0 КГц
Битовая глубина : 16 бит
Метод сжатия : С потерями
Размер потока : 118 Мбайт (4%)
Язык : English
Default : Нет
Forced : Нет

Аудио #3
Идентификатор : 4
Формат : AC-3
Формат/Информация : Audio Coding 3
Расширение режима : CM (complete main)
Параметр Endianness формата : Big
Идентификатор кодека : A_AC3
Продолжительность : 43 м.
Вид битрейта : Постоянный
Битрейт : 384 Кбит/сек
Каналы : 6 каналов
Расположение каналов : Front: L C R, Side: L R, LFE
Частота : 48,0 КГц
Битовая глубина : 16 бит
Метод сжатия : С потерями
Размер потока : 118 Мбайт (4%)
Язык : English
Default : Нет
Forced : Нет

Аудио #4
Идентификатор : 5
Формат : AC-3
Формат/Информация : Audio Coding 3
Расширение режима : CM (complete main)
Параметр Endianness формата : Big
Идентификатор кодека : A_AC3
Продолжительность : 43 м.
Вид битрейта : Постоянный
Битрейт : 384 Кбит/сек
Каналы : 6 каналов
Расположение каналов : Front: L C R, Side: L R, LFE
Частота : 48,0 КГц
Битовая глубина : 16 бит
Метод сжатия : С потерями
Размер потока : 118 Мбайт (4%)
Язык : English
Default : Нет
Forced : Нет

Аудио #5
Идентификатор : 6
Формат : AC-3
Формат/Информация : Audio Coding 3
Расширение режима : CM (complete main)
Параметр Endianness формата : Big
Идентификатор кодека : A_AC3
Продолжительность : 43 м.
Вид битрейта : Постоянный
Битрейт : 384 Кбит/сек
Каналы : 6 каналов
Расположение каналов : Front: L C R, Side: L R, LFE
Частота : 48,0 КГц
Битовая глубина : 16 бит
Метод сжатия : С потерями
Размер потока : 118 Мбайт (4%)
Язык : English
Default : Нет
Forced : Нет











Внимание! Раздача пополняется по мере выхода новых серий!


Раздача ведётся путём добавления новых серий; при каждом добавлении создётся новый торрент.
Чтобы начать докачку новой серии, пользователям необходимо сделать следующее:
1. остановить скачивание,
2. удалить старый торрент у себя из клиента (старые серии удалять не надо),
3. скачать новый торрент и запустить его у себя в клиенте вместо старого, при этом указать клиенту путь в старую папку, куда и должно происходить скачивание новых серий.

Ваш клиент при этом должен произвести хеширование (проверку) старой папки (если не производит сам - помогите ему сделать это), и будет докачивать только те серии которых у вас ещё нет. Старые серии при этом не удаляются, а продолжают раздаваться!

Eсли вы уже удалили старые серии, то предотвратить повторную закачку старых серий можно, отжав галочку в соответсвующих местах при запуске нового торрента. По возможности, желательно не удалять старые серии как можно дольше, чтобы релизёр не столько продолжал раздавать старые серии, а смог сконцентрироваться на новых.

Совет для тех, кто не хочет ждать перехеширования:
Создайте ещё одну папку рядом с папкой сериала (рядом, а не в ней!!!). Каждую новую серию после удачной загрузки копируйте в новую папку так чтобы ваша основная папка всегда была пуста. Когда ваш новый торрент предложит вам закачать все файлы, выберете только последнюю. Для сидирования же укажите адрес новой папки.

Как закачать отдельный файл из торрента или докачать ранее пропущенные файлы торрента!

1. Открыть торрент
2. Снять галки с тех файлов торрента, которые мы не хотим закачивать. Оставляем только на нужных нам файлах (файле).
3. Нажать О.К.

В клиенте utorrent

Инструкция

1) Открыть торрент


2) Снять галки с тех файлов торрента, которые мы не хотим закачивать:

* либо вручную, снимая с каждого файла галку( скрин №1)
* либо, нажав кнопку "Снять метки (Select None)", сняв сразу со всех файлов(скрин №2)
№1

№2

Оставляем только на нужных нам файлах (файле).

3)Нажать О.К









Внимание!!! 04.09. 2015. РАЗДАЧА ОБНОВЛЕНА.Финал сезона. ОБНОВИТЕ ТОРЕНТ ФАЙЛ.ПРИЯТНОГО ПРОСМОТРА .


Релиз от: Nikolai.Baranov







_________________

Легко быть оптимистом, когда судьба не валит с ног тяжелыми ударами, а лишь иногда легонько шлепает по заднице.



реклама партнёра


Вернуться к началу
 Профиль Отправить личное сообщение  
 
   Похожие торренты   Автор   Торрент   Размер 
В этой теме нет новых непрочитанных сообщений. Ганнибал / Hannibal (Сезон 3, Серия 1-11 из 13) (Гильермо Наварро, Майкл Раймер, Дэвид Слэйд) [2015, Детектив, криминал, драма , HDTVRip , WEB-DLRip-AVC 1080p] [DD5.1] [MVO] [Sony Sci Fi ,AlexFilm,NewStudio , BaibaKo , Jaskier + Subs Ru

Враг Нароода

14 | 16

32.97 ГБ

В этой теме нет новых непрочитанных сообщений. Ганнибал / Hannibal [03х01-13 из 13] (Гильермо Наварро, Майкл Раймер, Дэвид Слэйд) [детектив, криминал, драма, 2015] HDTVRip 1080p [Sony Sci Fi]

Dracon

73 | 149

42.65 ГБ

В этой теме нет новых непрочитанных сообщений. Ганнибал / Hannibal [03х01-13 из 13] (Гильермо Наварро, Майкл Раймер, Дэвид Слэйд) [детектив, криминал, драма, 2015] HDTVRip 720p [Sony Sci Fi]

Dracon

215 | 245

15.36 ГБ

В этой теме нет новых непрочитанных сообщений. Ганнибал / Hannibal [03х01-11 из 13] (Гильермо Наварро, Майкл Раймер, Дэвид Слэйд) [детектив, криминал, драма, 2015] HDTVRip 720p [Sony Sci Fi]

Dracon

160 | 178

12.5 ГБ

В этой теме нет новых непрочитанных сообщений. Ганнибал / Hannibal [01-03х01-27 из 39] (Гильермо Наварро, Майкл Раймер, Дэвид Слэйд) [Детектив, триллер, криминал, драма, 2013-2015] WEB-DLRip [AlexFilm]

Dracon

37 | 18

13.67 ГБ

В этой теме нет новых непрочитанных сообщений. Ганнибал / Hannibal [03х01-13 из 13] (Гильермо Наварро, Майкл Раймер, Дэвид Слэйд) [Детектив, триллер, криминал, драма, 2015] WEB-DLRip [NewStudio]

Dracon

127 | 50

7.65 ГБ

В этой теме нет новых непрочитанных сообщений. Ганнибал / Hannibal [Season 3 episode 1-13] (Гильермо Наварро, Майкл Раймер, Дэвид Слэйд) [Детектив, триллер, криминал, драма, 2015] HDTVRip [AlexFilm]

Dracon

312 | 252

7.19 ГБ


Начать новую тему Ответить на тему  [ 1 сообщение ] 




Для Мосгорсуда, Роскомнадзора и рекламодателей:: mosgorsud-torrent[собачка]yandex.ru