Торрент файл
скачать торрент магнет ссылка Добавлен: 01 сен 2015, 11:59
Размер: 8.41 ГБ
Сидеров: 8
Личеров: 12
Статус: (salma3)
Автор

СообщениеДобавлено: 01 сен 2015, 11:59 

Не в сети
Супермодератор
Аватара пользователя
Дата регистрации:
15 фев 2012, 16:44
Возраст: 27
Спасибо: 5135 / 2089
Сообщения: 17406
Подопытные / Lab Rats /

Год выпуска: 2013
Жанр: фэнтези, боевик, комедия
Режиссер: Виктор Гонзалез, Гай Дистад, Джоди Марголин

В ролях: Билли Ангер, Спенсер Болдмэн, Келли Бёрглунд, Тайрел Джексон Уильямс, Хэл Спаркс, Мэйл Флэнеган, Энджел Паркер, Уилл Форте, Джереми Кент Джексон, Мэдисон Петтис

Описание:
Эти трое подростков — результат уникального эксперимента, проведённого изобретателем Дональдом Дэвенпортом. Адам может подбросить в воздух автомобиль, словно пушинку, Чейс обладает суперинтеллектом, а Бри способна бегать со скоростью молнии. А вот родной сын Дональда — Лео — обычный школьник, который не может похвастаться никакими сверхспособностями. Но однажды, случайно проникнув в секретную лабораторию отца, паренёк знакомится с юными супергероями. Лео убеждает Дональда, что ребятам нужно общение со сверстниками, и приводит их в школу. Увенчается ли успехом и этот эксперимент?



Страна: США
Продолжительность: 26 x ~ 00:22:00
Перевод: Профессиональный (полное дублирование) Невафильм

Файл
Качество: WEB-DLRip
Формат файла: AVI
Видео кодек: XviD
Аудио кодек: MP3/AC3
Видео: 720x400 (1.80:1), 23.976 fps, XviD build 65 ~1532 kbps avg, 0.22 bit/pixel
Аудио1 Rus: 48 kHz, MPEG Layer 3, 2 ch, ~128.00 kbps avg [Невафильм]
Аудио2 Eng: 48 kHz, AC3 Dolby Digital, 3/2 (L,C,R,l,r) + LFE ch, ~384 kbps [оригинал]


Общее
Полное имя : K:\2x01 - Speed Trapped.avi
Формат : AVI
Формат/Информация : Audio Video Interleave
Размер файла : 333 Мбайт
Продолжительность : 22 м.
Общий поток : 2052 Кбит/сек
Название фильма : Подопытные. Сезон 2 / Lab Rats. Season 2 (2012)
Программа кодирования : VirtualDubMod 1.5.10.2 (build 2540/release)
Библиотека кодирования : VirtualDubMod build 2540/release
Авторское право : miha2154
Видео
Идентификатор : 0
Формат : MPEG-4 Visual
Профиль формата : Advanced Simple@L5
Параметр BVOP формата : 1
Параметр QPel формата : Нет
Параметр GMC формата : Без точки перехода
Параметр матрицы формата : Выборочная
Идентификатор кодека : DX50
Идентификатор кодека/Подсказка : DivX 5
Продолжительность : 22 м.
Битрейт : 1526 Кбит/сек
Ширина : 720 пикселей
Высота : 400 пикселей
Соотношение сторон : 16:9
Частота кадров : 23,976 кадра/сек
Цветовое пространство : YUV
Субдискретизация насыщенности : 4:2:0
Битовая глубина : 8 бит
Тип развёртки : Прогрессивная
Метод сжатия : С потерями
Бит/(Пиксели*Кадры) : 0.221
Размер потока : 248 Мбайт (74%)
Библиотека кодирования : XviD 65
Аудио #1
Идентификатор : 1
Формат : MPEG Audio
Версия формата : Version 1
Профиль формата : Layer 3
Режим : Joint stereo
Расширение режима : MS Stereo
Идентификатор кодека : 55
Идентификатор кодека/Подсказка : MP3
Продолжительность : 22 м.
Вид битрейта : Постоянный
Битрейт : 128 Кбит/сек
Каналы : 2 канала
Частота : 48,0 КГц
Метод сжатия : С потерями
Размер потока : 20,8 Мбайт (6%)
Выравнивание : Разделение по промежуткам
Продолжительность промежутка : 42 мс. (1,00 видеокадр)
Время предзагрузки промежутка : 500 мс.
Заголовок : Профессиональный (полное дублирование) Disney
Аудио #2
Идентификатор : 2
Формат : AC-3
Формат/Информация : Audio Coding 3
Расширение режима : CM (complete main)
Параметр Endianness формата : Big
Идентификатор кодека : 2000
Продолжительность : 22 м.
Вид битрейта : Постоянный
Битрейт : 384 Кбит/сек
Каналы : 6 каналов
Расположение каналов : Front: L C R, Side: L R, LFE
Частота : 48,0 КГц
Метод сжатия : С потерями
Размер потока : 62,4 Мбайт (19%)
Выравнивание : Разделение по промежуткам
Продолжительность промежутка : 42 мс. (1,00 видеокадр)
Время предзагрузки промежутка : 500 мс.
Заголовок : Английский





_________________



реклама партнёра


Вернуться к началу
 Профиль Отправить личное сообщение  
 
   Похожие торренты   Автор   Торрент   Размер 
В этой теме нет новых непрочитанных сообщений. Подопытные / Lab Rats / 1 сезон 1-20 серии из 20 [фэнтези, боевик, комедия, 2012] WEB-DLRip, Dub [Невафильм]

salma3

16 | 12

6.06 ГБ

В этой теме нет новых непрочитанных сообщений. Подопытные / Lab Rats / 3 сезон 1-26 серии из 26 [фэнтези, боевик, комедия, 2014] WEB-DLRip, Dub [Невафильм]

salma3

12 | 7

8.65 ГБ

В этой теме нет новых непрочитанных сообщений. Однажды в Сказке / Once Upon a Time / 4 сезон 1-23 серии из 23 [фэнтези, драма, приключения , 2014] WEB-DLRip, Dub [Невафильм]

salma3

1080 | 538

11.22 ГБ

В этой теме нет новых непрочитанных сообщений. Призраки дома Хатэвэй / Haunted Hathaways / 1 сезон 1-26 серии из 26 [фэнтези, комедия, семейный, 2013] WEB-DLRip, Dub [Nickelodeon]

salma3

18 | 10

6.46 ГБ

В этой теме нет новых непрочитанных сообщений. Тайны острова Мако / Mako Mermaids / 1 сезон 1-26 серии из 26 [фэнтези, комедия, приключения, 2013] WEB-DLRip, Dub [Disney]

salma3

50 | 34

8.61 ГБ

В этой теме нет новых непрочитанных сообщений. Однажды в Сказке / Once Upon a Time / 3 сезон 1-22 серии из 22 [фэнтези, 2013-2014] WEB-DLRip, Avo

salma3

349 | 100

9.62 ГБ

В этой теме нет новых непрочитанных сообщений. Ведьмы Ист-Энда / Witches of East End / 1 сезон 1-10 серии из 10 [фэнтези, драма, 2013] WEB-DLRip, Mvo [LostFilm]

salma3

212 | 114

4.53 ГБ


Начать новую тему Ответить на тему  [ 1 сообщение ] 




Для Мосгорсуда, Роскомнадзора и рекламодателей:: mosgorsud-torrent[собачка]yandex.ru