Торрент файл
скачать торрент магнет ссылка Добавлен: 14 авг 2015, 11:45
Размер: 12.78 ГБ
Сидеров: 15
Личеров: 8
Статус: (salma3)
Автор

СообщениеДобавлено: 14 авг 2015, 11:45 

Не в сети
Супермодератор
Аватара пользователя
Дата регистрации:
15 фев 2012, 16:44
Возраст: 27
Спасибо: 5969 / 2115
Сообщения: 28660
Добрая ведьма / Good Witch

Год выпуска: 2015
Жанр: фэнтези, драма, комедия
Режиссер: Крэйг Прайс, Лори Линд, Дон МакБрити

В ролях: Кэтрин Белл, Бэйли Мэдисон, Джеймс Дентон, Кэтрин Дишер, Энтони Лемке, Рис Метью Бонд, Дэн Джиннотт, Ханна Эндикотт Дуглас, Ной Кэппи

Описание:
Сериал рассказывает зрителям новую волшебную историю о Кэсси Найтингейл. Когда доктор Сэм Рэдфорт и его сын Ник переезжают в дом по соседству с «Серым домом», магический дуэт матери и дочери очаровывает их.



Страна: США
Продолжительность: 10 х ~ 00:46:00
Перевод: Любительский (одноголосый) [Мария Аскольта]

Файл
Качество: WEB-DL 720p
Формат файла: MKV
Видео кодек: H.264
Аудио кодек: AC3
Видео: 1280x718р (16:9), 23.976fps, AVC (x264) , ~ 3 950 kbps avg, 0.179 bit/pixel
Аудио1: Русский 48.0 kHz, AC3, 6 ch (Front: L C R, Side: L R, LFE), ~224 Kbps avg [одноголосый]
Аудио2: Английский 48.0 kHz, AC3, 6 ch (Front: L C R, Side: L R, LFE), ~384 Kbps avg [Оригинал]


Format : Matroska
Format version : Version 2
File size : 1.28 GiB
Duration : 42mn 6s
Overall bit rate : 4 343 Kbps
Encoded date : UTC 2015-06-16 17:41:56
Writing application : mkvmerge v4.2.0 ('No Talking') сборка от Jul 28 2010 18:38:23
Writing library : libebml v1.0.0 + libmatroska v1.0.0
Attachements : cover.jpg / cover_land.jpg / small_cover.jpg / small_cover_land.jpg
Video
ID : 1
Format : AVC
Format/Info : Advanced Video Codec
Format profile :
Format settings, CABAC : No
Format settings, ReFrames : 2 frames
Muxing mode : Header stripping
Codec ID : V_MPEG4/ISO/AVC
Duration : 42mn 6s
Bit rate : 3 950 Kbps
Width : 1 280 pixels
Height : 718 pixels
Display aspect ratio : 16:9
Frame rate mode : Constant
Frame rate : 23.976 fps
Color space : YUV
Chroma subsampling : 4:2:0
Bit depth : 8 bits
Scan type : Progressive
Bits/(Pixel*Frame) : 0.179
Stream size : 1.15 GiB (85%)
Default : Yes
Forced : No
Color primaries : BT.709
Transfer characteristics : BT.709
Matrix coefficients : BT.709
Audio #1
ID : 2
Format : AC-3
Format/Info : Audio Coding 3
Mode extension : CM (complete main)
Format settings, Endianness : Big
Muxing mode : Header stripping
Codec ID : A_AC3
Duration : 41mn 53s
Bit rate mode : Constant
Bit rate : 224 Kbps
Channel(s) : 6 channels
Channel positions : Front: L C R, Side: L R, LFE
Sampling rate : 48.0 KHz
Bit depth : 16 bits
Compression mode : Lossy
Stream size : 67.1 MiB (5%)
Title : VO Мария Аскольта ascolta.info
Default : Yes
Forced : No
Audio #2
ID : 3
Format : AC-3
Format/Info : Audio Coding 3
Mode extension : CM (complete main)
Format settings, Endianness : Big
Muxing mode : Header stripping
Codec ID : A_AC3
Duration : 41mn 53s
Bit rate mode : Constant
Bit rate : 384 Kbps
Channel(s) : 6 channels
Channel positions : Front: L C R, Side: L R, LFE
Sampling rate : 48.0 KHz
Bit depth : 16 bits
Compression mode : Lossy
Stream size : 115 MiB (8%)
Language : English
Default : No
Forced : No




_________________
Проголосуй за трекер Открытый торрент трекер - RUS-MEDIA.ORG




реклама партнёра


Вернуться к началу
 Профиль Отправить личное сообщение  
 
   Похожие торренты   Автор   Торрент   Размер 
В этой теме нет новых непрочитанных сообщений. Добрая ведьма / Good Witch / 1 сезон: 1-10 серии из 10 [фэнтези, драма, комедия, 2015] WEB-DLRip, Avo

salma3

34 | 18

7.32 ГБ

В этой теме нет новых непрочитанных сообщений. Ведьма из Блэр: Новая глава / Blair Witch [Ужасы, триллер, 2016] BDRip 720p, Dub+Avo+Sub [Лицензия]

salma3

67 | 13

3.26 ГБ

В этой теме нет новых непрочитанных сообщений. Ведьма любви / The Love Witch [ужасы, комедия, 2016] HDRip, Dvo

salma3

157 | 41

1.37 ГБ

В этой теме нет новых непрочитанных сообщений. Ведьма любви / The Love Witch [ужасы, комедия, 2016] WEB-DLRip, Mvo

salma3

943 | 363

2.05 ГБ

В этой теме нет новых непрочитанных сообщений. Ведьма из Блэр: Курсовая с того света / The Blair Witch Project [ужасы, детектив, 1999] BDRip 720p, Mvo

salma3

108 | 20

3.43 ГБ

В этой теме нет новых непрочитанных сообщений. Ведьма из Блэр 2: Книга теней / Book of Shadows: Blair Witch 2 [ужасы, фэнтези, триллер, детектив, приключения, 2000] WEBRip 1080p, Dub

salma3

101 | 36

7.12 ГБ

В этой теме нет новых непрочитанных сообщений. Ведьма любви / The Love Witch [ужасы, комедия, 2016] WEB-DLRip 1080р, Mvo

salma3

379 | 140

4.62 ГБ


Начать новую тему Ответить на тему  [ 1 сообщение ] 




Для Мосгорсуда, Роскомнадзора и рекламодателей:: mosgorsud-torrent[собачка]yandex.ru