Торрент файл
скачать торрент магнет ссылка Добавлен: 02 авг 2015, 22:23
Размер: 29.2 ГБ
Сидеров: 13
Личеров: 7
Автор

СообщениеДобавлено: 02 авг 2015, 22:23 

В сети
Супермодератор
Аватара пользователя
Дата регистрации:
15 фев 2012, 16:44
Возраст: 27
Спасибо: 5148 / 2090
Сообщения: 17558
Годы выхода: 2009-2010
Жанр: драма, фантастика, триллер, детектив
Автор идеи: Джосс Уидон /Joss Whedon/
Режиссеры: Дэвид Соломон /David Solomon/, Джосс Уидон /Joss Whedon/, Тим Минеар /Tim Minear/ и др.
В ролях: Элиза Душку /Eliza Dushku/, Гарри Дж. Ленникс /Harry J. Lennix/, Фрэн Кранц /Fran Kranz/, Тамо Пеникетт /Tahmoh Penikett/, Энвер Гьокай /Enver Gjokaj/, Дичен Лакмэн /Dichen Lachman/, Оливия Уильямс /Olivia Williams/, Миракл Лоури /Miracle Laurie/, Эми Акер /Amy Acker/, Рид Даймонд /Reed Diamond/ и др.

О сериале:
Они будут тем, кем вы захотите, и сделают то, что вам нужно. Они говорят на всех языках и обладают всеми навыками сразу. Они живут в месте, где стираются сожаления, боль, воспоминания, и говорят, что они пришли туда добровольно. Но…так ли это? Девушка по имени Эко живет в таинственном «Кукольном доме» и является членом незаконной и подпольной группы людей, чья индивидуальность была стерта.

Она — Кукла. Нанимаемые богачами и влиятельными людьми, Куклы не просто выполняют свои роли, а полностью становятся теми, кого хочет видеть очередной клиент. В их разум может быть загружено бесчисленное количество информации, и каждый раз после выполнения задания она полностью стирается. Но однажды память Эко будто просыпается от тяжелого сна, и она начинает медленно, по кусочкам собирать свое таинственное прошлое…



Страны: США
Студии: 20th Century Fox Television / Mutant Enemy Productions / Boston Diva Productions
Продолжительность: 13 x ~ 00:44:00
Перевод: Профессиональный (многоголосый, закадровый) - ТВ3

Файл
Кодек: H.264
Качество: BDRip 720p
Видео: 1280x720 at 23.976 fps, x264@L3.1, 2pass, ~5700 kbps avg
Аудио#1: Russian: 48 kHz, AC3, 2/0 (L,R) ch, ~192.00 kbps avg |Многоголосый закадровый, ТВ3|
Аудио#2: English: 48 kHz, DTS, 3/2 (L,C,R,l,r) + LFE ch, ~1509.00 kbps avg |Оригинал|
Субтитры: Russian (Full), English (SDH)


General
Complete name : Dollhouse.S02E01.Vows.720p.BluRay.x264-SiNNERS.mkv
Format : Matroska
Format version : Version 1
File size : 2.25 GiB
Duration : 43mn 37s
Overall bit rate : 7 370 Kbps
Encoded date : UTC 2010-10-03 08:45:09
Writing application : mkvmerge v2.5.3 ('Boogie') built on Mar 7 2009 15:00:41
Writing library : libebml v0.7.7 + libmatroska v0.8.1

Video
ID : 1
Format : AVC
Format/Info : Advanced Video Codec
Format profile : High@L3.1
Format settings, CABAC : Yes
Format settings, ReFrames : 5 frames
Codec ID : V_MPEG4/ISO/AVC
Duration : 43mn 37s
Bit rate : 5 666 Kbps
Width : 1 280 pixels
Height : 720 pixels
Display aspect ratio : 16:9
Frame rate mode : Constant
Frame rate : 23.976 fps
Color space : YUV
Chroma subsampling : 4:2:0
Bit depth : 8 bits
Scan type : Progressive
Bits/(Pixel*Frame) : 0.256
Stream size : 1.68 GiB (75%)
Writing library : x264 core 105 r1732 2b04482
Encoding settings : cabac=1 / ref=5 / deblock=1:0:0 / analyse=0x3:0x113 / me=umh / subme=7 / psy=1 / psy_rd=1.00:0.00 / mixed_ref=1 / me_range=16 / chroma_me=1 / trellis=1 / 8x8dct=1 / cqm=0 / deadzone=21,11 / fast_pskip=0 / chroma_qp_offset=-2 / threads=12 / sliced_threads=0 / nr=0 / decimate=1 / interlaced=0 / constrained_intra=0 / bframes=3 / b_pyramid=2 / b_adapt=1 / b_bias=0 / direct=1 / weightb=1 / open_gop=0 / weightp=2 / keyint=250 / keyint_min=23 / scenecut=40 / intra_refresh=0 / rc_lookahead=40 / rc=2pass / mbtree=1 / bitrate=5666 / ratetol=1.0 / qcomp=0.60 / qpmin=10 / qpmax=51 / qpstep=4 / cplxblur=20.0 / qblur=0.5 / ip_ratio=1.40 / aq=1:1.00
Language : English
Default : Yes
Forced : No

Audio #1
ID : 2
Format : AC-3
Format/Info : Audio Coding 3
Mode extension : CM (complete main)
Format settings, Endianness : Big
Codec ID : A_AC3
Duration : 43mn 37s
Bit rate mode : Constant
Bit rate : 192 Kbps
Channel(s) : 2 channels
Channel positions : Front: L R
Sampling rate : 48.0 KHz
Compression mode : Lossy
Stream size : 59.9 MiB (3%)
Title : AC3 2.0 @ 192 kbps [ТВ3]
Language : Russian
Default : Yes
Forced : No

Audio #2
ID : 3
Format : DTS
Format/Info : Digital Theater Systems
Mode : 16
Format settings, Endianness : Big
Codec ID : A_DTS
Duration : 43mn 37s
Bit rate mode : Constant
Bit rate : 1 509 Kbps
Channel(s) : 6 channels
Channel positions : Front: L C R, Side: L R, LFE
Sampling rate : 48.0 KHz
Bit depth : 24 bits
Compression mode : Lossy
Stream size : 471 MiB (20%)
Title : DTS 5.1 @ 1510 kbps
Language : English
Default : No
Forced : No

Text #1
ID : 4
Format : UTF-8
Codec ID : S_TEXT/UTF8
Codec ID/Info : UTF-8 Plain Text
Language : English
Default : No
Forced : No

Text #2
ID : 5
Format : UTF-8
Codec ID : S_TEXT/UTF8
Codec ID/Info : UTF-8 Plain Text
Language : Russian
Default : No
Forced : No
01. Vows / Обеты
02. Instinct / Инстинкт
03. Belle Chose / Моя прелесть
04. Belonging / Собственность
05. The Public Eye / Глаз общественности
06. The Left Hand / Левая рука
07. Meet Jane Doe / Знакомьтесь, Джейн Доу
08. A Love Supreme / Величайшая любовь
09. Stop-Loss / Сокращение ущерба
10. The Attic / Чердак
11. Getting Closer / Доходное дело
12. The Hollow Men / Доходяга
13. Epitaph Two: Return / Эпитафия вторая: Возвращение


_________________



реклама партнёра


Вернуться к началу
 Профиль Отправить личное сообщение  
 
   Похожие торренты   Автор   Торрент   Размер 
В этой теме нет новых непрочитанных сообщений. Кукольный дом / Dollhouse [S01] [драма, фантастика, триллер, детектив,2009] BDRip 720p, Mvo+Sub [ТВ3]

salma3

16 | 23

39.12 ГБ

В этой теме нет новых непрочитанных сообщений. Кукольный дом / Amityville: Dollhouse [ужасы, 1996] DVDRip, Dvo

salma3

29 | 2

1.44 ГБ

В этой теме нет новых непрочитанных сообщений. Девять / 9 [мультфильм, фантастика, фэнтези, боевик, триллер, драма, детектив, приключения, 2009] BDRip 720p, Dub+Avo+Sub

salma3

167 | 9

3.1 ГБ

В этой теме нет новых непрочитанных сообщений. Высота / Altitude [ужасы, фантастика, триллер, детектив, 2010] BDRip 720p, Dvo

salma3

91 | 18

5.66 ГБ

В этой теме нет новых непрочитанных сообщений. Незабываемое / Unforgettable [Фантастика, триллер, драма, детектив, 1996] BDRip 720p, Mvo

salma3

26 | 6

7.62 ГБ

В этой теме нет новых непрочитанных сообщений. Контакт / Contact [фантастика, триллер, драма, детектив, 1997] BDRip 720p, Dub+Mvo+Avo+Sub

salma3

46 | 7

6.85 ГБ

В этой теме нет новых непрочитанных сообщений. Превосходство / Transcendence [фантастика, триллер, драма, детектив, 2014] BDRip 720p, Dub

Dracon

1462 | 40

5.78 ГБ


Начать новую тему Ответить на тему  [ 1 сообщение ] 




Для Мосгорсуда, Роскомнадзора и рекламодателей:: mosgorsud-torrent[собачка]yandex.ru