Торрент файл
скачать торрент магнет ссылка Добавлен: 26 июл 2015, 21:13
Размер: 39.12 ГБ
Сидеров: 16
Личеров: 23
Автор

СообщениеДобавлено: 26 июл 2015, 21:13 

Не в сети
Супермодератор
Аватара пользователя
Дата регистрации:
15 фев 2012, 16:44
Возраст: 28
Спасибо: 6590 / 2145
Сообщения: 44152
Год выхода: 2009
Жанр: драма, фантастика, триллер, детектив
Автор идеи: Джосс Уидон /Joss Whedon/
Режиссеры: Дэвид Соломон /David Solomon/, Джосс Уидон /Joss Whedon/, Тим Минеар /Tim Minear/ и др.
В ролях: Элиза Душку /Eliza Dushku/, Гарри Дж. Ленникс /Harry J. Lennix/, Фрэн Кранц /Fran Kranz/, Тамо Пеникетт /Tahmoh Penikett/, Энвер Гьокай /Enver Gjokaj/, Дичен Лакмэн /Dichen Lachman/, Оливия Уильямс /Olivia Williams/, Миракл Лоури /Miracle Laurie/, Эми Акер /Amy Acker/, Рид Даймонд /Reed Diamond/ и др.

О сериале:
Они будут тем, кем вы захотите, и сделают то, что вам нужно. Они говорят на всех языках и обладают всеми навыками сразу. Они живут в месте, где стираются сожаления, боль, воспоминания, и говорят, что они пришли туда добровольно. Но…так ли это? Девушка по имени Эко живет в таинственном «Кукольном доме» и является членом незаконной и подпольной группы людей, чья индивидуальность была стерта.

Она — Кукла. Нанимаемые богачами и влиятельными людьми, Куклы не просто выполняют свои роли, а полностью становятся теми, кого хочет видеть очередной клиент. В их разум может быть загружено бесчисленное количество информации, и каждый раз после выполнения задания она полностью стирается. Но однажды память Эко будто просыпается от тяжелого сна, и она начинает медленно, по кусочкам собирать свое таинственное прошлое…



Страны: США
Студии: 20th Century Fox Television / Mutant Enemy Productions / Boston Diva Productions
Продолжительность: 13 x ~ 00:50:00
Перевод: Профессиональный (многоголосый, закадровый) - ТВ3

Рип от DON!

Файл
Кодек: H.264
Качество: BDRip 720p
Видео: 1280x720 at 23.976 fps, x264@L4.1, crf, ~7000 kbps avg
Аудио#1: Russian: 48 kHz, AC3, 2/0 (L,R) ch, ~192.00 kbps avg |Многоголосый закадровый, ТВ3|
Аудио#2: English: 48 kHz, DTS, 3/2 (L,C,R,l,r) + LFE ch, ~1509.00 kbps avg |Оригинал|
Субтитры: Russian (Full), English (SDH)


General
Complete name : Dollhouse.2009.S01E01.720p.BluRay.DTS.x264.mkv
Format : Matroska
Format version : Version 1
File size : 3.06 GiB
Duration : 50mn 17s
Overall bit rate : 8 705 Kbps
Encoded date : UTC 2010-08-23 18:49:36
Writing application : mkvmerge v2.5.3 ('Boogie') built on Mar 7 2009 15:00:41
Writing library : libebml v0.7.7 + libmatroska v0.8.1

Video
ID : 1
Format : AVC
Format/Info : Advanced Video Codec
Format profile : High@L4.1
Format settings, CABAC : Yes
Format settings, ReFrames : 9 frames
Codec ID : V_MPEG4/ISO/AVC
Duration : 50mn 17s
Bit rate : 7 000 Kbps
Width : 1 280 pixels
Height : 720 pixels
Display aspect ratio : 16:9
Frame rate mode : Constant
Frame rate : 23.976 fps
Color space : YUV
Chroma subsampling : 4:2:0
Bit depth : 8 bits
Scan type : Progressive
Bits/(Pixel*Frame) : 0.317
Stream size : 2.40 GiB (78%)
Title : Dollhouse S01E01 Ghost
Writing library : x264 core 68 r1195M 5d75a9b
Encoding settings : cabac=1 / ref=9 / deblock=1:-3:-3 / analyse=0x3:0x113 / me=umh / subme=10 / psy_rd=1.1:0.0 / mixed_ref=1 / me_range=64 / chroma_me=1 / trellis=2 / 8x8dct=1 / cqm=0 / deadzone=21,11 / chroma_qp_offset=-2 / threads=6 / nr=0 / decimate=0 / mbaff=0 / bframes=5 / b_pyramid=1 / b_adapt=2 / b_bias=0 / direct=3 / wpredb=1 / keyint=250 / keyint_min=25 / scenecut=40 / rc=2pass / bitrate=7000 / ratetol=1.0 / qcomp=0.60 / qpmin=10 / qpmax=51 / qpstep=4 / cplxblur=20.0 / qblur=0.5 / ip_ratio=1.40 / pb_ratio=1.30 / aq=1:0.60
Language : English
Default : Yes
Forced : No

Audio #1
ID : 2
Format : AC-3
Format/Info : Audio Coding 3
Mode extension : CM (complete main)
Format settings, Endianness : Big
Codec ID : A_AC3
Duration : 50mn 17s
Bit rate mode : Constant
Bit rate : 192 Kbps
Channel(s) : 2 channels
Channel positions : Front: L R
Sampling rate : 48.0 KHz
Compression mode : Lossy
Stream size : 69.1 MiB (2%)
Title : AC3 2.0 @ 192 kbps [ТВ3]
Language : Russian
Default : Yes
Forced : No

Audio #2
ID : 3
Format : DTS
Format/Info : Digital Theater Systems
Mode : 16
Format settings, Endianness : Big
Codec ID : A_DTS
Duration : 50mn 17s
Bit rate mode : Constant
Bit rate : 1 509 Kbps
Channel(s) : 6 channels
Channel positions : Front: L C R, Side: L R, LFE
Sampling rate : 48.0 KHz
Bit depth : 24 bits
Compression mode : Lossy
Stream size : 543 MiB (17%)
Title : DTS 5.1 @ 1 510 Kbps
Language : English
Default : No
Forced : No

Text #1
ID : 4
Format : UTF-8
Codec ID : S_TEXT/UTF8
Codec ID/Info : UTF-8 Plain Text
Language : English
Default : No
Forced : No

Text #2
ID : 5
Format : UTF-8
Codec ID : S_TEXT/UTF8
Codec ID/Info : UTF-8 Plain Text
Language : Russian
Default : No
Forced : No
01. Ghost / Призрак
02. The Target / Цель
03. Stage Fright / Боязнь сцены
04. Gray Hour / Тихий час
05. True Believer / Искренняя вера
06. Man on the Street / Человек без значка
07. Echoes / Отголоски
08. Needs / Потребности
09. A Spy in the House of Love / Шпион в доме любви
10. Haunted / Дом с привидением
11. Briar Rose / Спящая красавица
12. Omega / Омега
13. Epitaph One / Эпитафия первая


_________________
Проголосуй за трекер Открытый торрент трекер - RUS-MEDIA.ORG

Проголосуй Открытый торрент трекер - RUS-MEDIA.ORG



реклама партнёра


Вернуться к началу
 Профиль Отправить личное сообщение  
 
   Похожие торренты   Автор   Торрент   Размер 
В этой теме нет новых непрочитанных сообщений. Кукольный дом / Dollhouse [S02] [драма, фантастика, триллер, детектив, 2009-2010] BDRip 720p, Mvo+Sub [ТВ3]

salma3

13 | 7

29.2 ГБ

В этой теме нет новых непрочитанных сообщений. Кукольный дом / Amityville: Dollhouse [ужасы, 1996] DVDRip, Dvo

salma3

29 | 5

1.44 ГБ

В этой теме нет новых непрочитанных сообщений. Девять / 9 [мультфильм, фантастика, фэнтези, боевик, триллер, драма, детектив, приключения, 2009] BDRip 720p, Dub+Avo+Sub

salma3

167 | 9

3.1 ГБ

В этой теме нет новых непрочитанных сообщений. Незабываемое / Unforgettable [Фантастика, триллер, драма, детектив, 1996] BDRip 720p, Mvo

salma3

26 | 6

7.62 ГБ

В этой теме нет новых непрочитанных сообщений. Контакт / Contact [фантастика, триллер, драма, детектив, 1997] BDRip 720p, Dub+Mvo+Avo+Sub

salma3

46 | 7

6.85 ГБ

В этой теме нет новых непрочитанных сообщений. Балибо / Balibo [Триллер, драма, детектив, 2009] BDRip 720p, Dvo

salma3

9 | 5

3.96 ГБ

В этой теме нет новых непрочитанных сообщений. Прибытие / Arrival [фантастика, триллер, драма, детектив, 2016] BDRip 720p, Dub+Sub [Лицензия]

salma3

179 | 62

7.08 ГБ


Начать новую тему Ответить на тему  [ 1 сообщение ] 




Для Мосгорсуда, Роскомнадзора и рекламодателей:: mosgorsud-torrent[собачка]yandex.ru