Торрент файл
скачать торрент магнет ссылка Добавлен: 17 июл 2015, 11:07
Размер: 29.42 ГБ
Сидеров: 20
Личеров: 25
Автор

СообщениеДобавлено: 17 июл 2015, 11:07 

В сети
Супермодератор
Аватара пользователя
Дата регистрации:
15 фев 2012, 16:44
Возраст: 27
Спасибо: 5121 / 2089
Сообщения: 17292
Годы выхода: 2003-2004
Жанр: драма, фантастика
Авторы идеи: Альфред Гоф /Alfred Gough/, Майлз Миллар /Miles Millar/
Режиссеры: Джеймс Маршалл /James Marshall/, Грег Биман /Greg Beeman/, Майк Рол /Mike Rohl/ и др.
В ролях: Том Уэллинг /Tom Welling/, Кристин Крук /Kristin Kreuk/, Майкл Розенбаум /Michael Rosenbaum/, Сэм Джонс III /Sam Jones III/, Эллисон Мэк /Allison Mack/, Джон Гловер /John Glover/, Аннетт О’Тул /Annette O'Toole/, Джон Шнайдер /John Schneider/ и др.

О сериале:
1989 год, метеоритный дождь в городе Смолвиль наносит невиданные разрушения, а в бездетной семье жителей Смолвиля странным образом появляется маленький ребёнок — Кларк Кент.
Прошло много лет. Кларк уже учится в школе. Его ошеломляющие способности заставляют его чаще задуматься о том, кто он собственно такой. К тому же он влюблен в одноклассницу — Лану Лэнг, чьи родители пропали во время метеоритного дождя. Этот фактор значительно осложняет их отношения. Внимательные родители Кларка пытаются любым путём сберечь его секрет, даже возбраняют ему выступать в школьной футбольной команде.
Однажды Кларк спас жизнь молодого бизнесмена Лекса Лютера, когда машина бизнесмена, потеряв управление, падает с моста в реку. С этого обстоятельства и завязывается череда многообразных похождений супермена — Кларка Кента.



Страны: США, Канада
Студии: Tollin/Robbins Productions / Millar Gough Ink / Warner Bros. Television и др.
Продолжительность: 22 x ~ 00:43:00
Перевод: Профессиональный (многоголосый, закадровый) - студия "Русский дубляж" по заказу СТС

Файл
Кодек: H.264
Качество: WEB-DL 720p
Видео: 1272x720 at 23.976 fps, MPEG-4 AVC, ~4000 kbps avg
Аудио#1: Russian: 48 kHz, AC3, 2/0 (L,R) ch, ~160.00 kbps avg |Многоголосый закадровый, СТС|
Аудио#2: English: 48 kHz, AC3, 2/0 (L,R) ch, ~160.00 kbps avg |Оригинал|
Субтитры: none


General
Complete name : Smallville.s03e01.Exile.web-dl.720p.ac3_2.0.rus.eng.mkv
Format : Matroska
Format version : Version 2
File size : 1.33 GiB
Duration : 43mn 7s
Overall bit rate : 4 426 Kbps
Encoded date : UTC 2011-04-25 14:14:49
Writing application : mkvmerge v4.5.0 ('Speed of Light') сборка от Feb 1 2011 02:10:32
Writing library : libebml v1.2.0 + libmatroska v1.1.0

Video
ID : 1
Format : AVC
Format/Info : Advanced Video Codec
Format profile : High@L3.1
Format settings, CABAC : No
Format settings, ReFrames : 2 frames
Muxing mode : Header stripping
Codec ID : V_MPEG4/ISO/AVC
Duration : 43mn 7s
Bit rate : 4 018 Kbps
Width : 1 272 pixels
Height : 720 pixels
Display aspect ratio : 16:9
Frame rate mode : Constant
Frame rate : 23.976 fps
Color space : YUV
Chroma subsampling : 4:2:0
Bit depth : 8 bits
Scan type : Progressive
Bits/(Pixel*Frame) : 0.183
Stream size : 1.21 GiB (91%)
Title : Smallville S03 E01 Exile
Language : English
Default : Yes
Forced : No
Color range : Limited
Color primaries : BT.709
Transfer characteristics : BT.709
Matrix coefficients : BT.709

Audio #1
ID : 2
Format : AC-3
Format/Info : Audio Coding 3
Mode extension : CM (complete main)
Format settings, Endianness : Big
Muxing mode : Header stripping
Codec ID : A_AC3
Duration : 43mn 7s
Bit rate mode : Constant
Bit rate : 160 Kbps
Channel(s) : 2 channels
Channel positions : Front: L R
Sampling rate : 48.0 KHz
Compression mode : Lossy
Stream size : 49.4 MiB (4%)
Title : CTC
Language : Russian
Default : Yes
Forced : No

Audio #2
ID : 3
Format : AC-3
Format/Info : Audio Coding 3
Mode extension : CM (complete main)
Format settings, Endianness : Big
Muxing mode : Header stripping
Codec ID : A_AC3
Duration : 43mn 7s
Bit rate mode : Constant
Bit rate : 160 Kbps
Channel(s) : 2 channels
Channel positions : Front: L R
Sampling rate : 48.0 KHz
Compression mode : Lossy
Stream size : 49.4 MiB (4%)
Title : Original
Language : English
Default : No
Forced : No
01. Exile / Ссылка
02. Phoenix / Феникс
03. Extinction / Угасание
04. Slumber / Сон
05. Perry / Перри
06. Relic / Реликвия
07. Magnetic / Притягательный
08. Shattered / Разрушенный
09. Asylum / Психушка
10. Whisper / Шёпот
11. Delete / Удаление
12. Hereafter / Грядущее
13. Velocity / Скорость
14. Obsession / Одержимость
15. Resurrection / Воскрешение
16. Crisis / Кризис
17. Legacy / Наследие
18. Truth / Правда
19. Memoria / Память
20. Talisman / Талисман
21. Forsaken / Покинутый
22. Covenant / Сделка


_________________



реклама партнёра


Вернуться к началу
 Профиль Отправить личное сообщение  
 
   Похожие торренты   Автор   Торрент   Размер 
В этой теме нет новых непрочитанных сообщений. Тайны Смолвиля / Smallville [S02] [драма, фантастика, 2002-2003] WEB-DL 720p, Mvo+Sub [СТС]

salma3

30 | 35

30.76 ГБ

В этой теме нет новых непрочитанных сообщений. Тайны Смолвиля / Smallville [S04] [драма, фантастика, 2004-2005] WEB-DL 720p, Mvo+Sub [СТС]

salma3

38 | 26

29.08 ГБ

В этой теме нет новых непрочитанных сообщений. Тайны Смолвиля / Smallville [S05] [драма, фантастика, 2005-2006] HDDVDRip 720p, Mvo+Sub [СТС / AXN Sci-F]

salma3

13 | 12

34.53 ГБ

В этой теме нет новых непрочитанных сообщений. Тайны Смолвиля / Smallville [S06] [драма, фантастика, 2006-2007] BDRip 720p, Mvo+Sub [СТС / AXN Sci-F]

salma3

9 | 8

49.87 ГБ

В этой теме нет новых непрочитанных сообщений. Тайны Смолвиля / Smallville [S07] [драма, фантастика, 2007-2008] BDRip 720p, Mvo+Sub [СТС / AXN Sci-F]

salma3

12 | 13

45.18 ГБ

В этой теме нет новых непрочитанных сообщений. Тайны Смолвиля / Smallville [S08] [драма, фантастика, 2008-2009] BDRip 720p, Mvo+Sub [СТС / AXN Sci-F]

salma3

6 | 13

49.77 ГБ

В этой теме нет новых непрочитанных сообщений. Тайны Смолвиля / Smallville [S01-10] [фантастика, драма, мелодрама, приключения, 2001-2011] WEB-DLRip, DVDRip, HDRip, Mvo [СТС]

salma3

83 | 206

79.92 ГБ


Начать новую тему Ответить на тему  [ 1 сообщение ] 




Для Мосгорсуда, Роскомнадзора и рекламодателей:: mosgorsud-torrent[собачка]yandex.ru